(Modern Classical, Orchestral) Fausto Romitelli - The Nameless City (Musiques Nouvelles, Jean-Paul Dessy) - 2012, FLAC (tracks+.cue) lossless


 

[Цитировать]

Fausto Romitelli - The Nameless City (Musiques Nouvelles, Jean-Paul Dessy)
Жанр: Modern Classical, Orchestral
Страна-производитель диска: France
Год издания диска: 2012
Издатель (лейбл): Cypres
Номер по каталогу: CYP5623
Аудиокодек: FLAC
Тип рипа: tracks+.cue
Битрейт аудио: lossless
Продолжительность: 00:49:36
Источник: скачано с
сайт-источник/ник/другое: waffles.fm
Наличие сканов в содержимом раздачи: front+back
Треклист:
1 Amok Koma 10:25
2 Flowing Down Too Slow 9:36
3 Domeniche Alla Periferia Dell'Impero 6:47
4 Nell' Alto Dei Giorni Immobili 9:15
5 The Nameless City 13:34
Исполнители:
Musiques Nouvelles, conductor/director: Jean-Paul Dessy

Лог создания рипа

Exact Audio Copy V1.0 beta 3 from 29. August 2011
EAC extraction logfile from 30. September 2014, 11:49
Musiques Nouvelles - Jean-Paul Dessy / Fausto Romitelli - The Nameless City
Used drive : MATSHITABD-CMB UJ160 Adapter: 0 ID: 2
Read mode : SecureUtilize accurate stream : YesDefeat audio cache : YesMake use of C2 pointers : No
Read offset correction : 103Overread into Lead-In and Lead-Out : NoFill up missing offset samples with silence : YesDelete leading and trailing silent blocks : NoNull samples used in CRC calculations : YesUsed interface : Native Win32 interface for Win NT & 2000Gap handling : Not detected, thus appended to previous track
Used output format : User Defined EncoderSelected bitrate : 896 kBit/sQuality : HighAdd ID3 tag : NoCommand line compressor : C:\Program Files (x86)\Exact Audio Copy\FLAC\FLAC.EXEAdditional command line options : -8 -V -T "ARTIST=%artist%" -T "TITLE=%title%" -T "ALBUM=%albumtitle%" -T "DATE=%year%" -T "TRACKNUMBER=%tracknr%" -T "GENRE=%genre%" -T "COMMENT=%comment%" -T "BAND=%albuminterpret%" -T "ALBUMARTIST=%albuminterpret%" -T "COMPOSER=%composer%" %haslyrics%--tag-from-file=LYRICS="%lyricsfile%"%haslyrics% -T "DISCNUMBER=%cdnumber%" -T "TOTALDISCS=%totalcds%" -T "TOTALTRACKS=%numtracks%" %hascover%--picture="%coverfile%"%hascover% %source% -o %dest%
TOC of the extracted CD
Track | Start | Length | Start sector | End sector --------------------------------------------------------- 1 | 0:01.00 | 10:25.25 | 75 | 46974 2 | 10:26.25 | 9:36.66 | 46975 | 90240 3 | 20:03.16 | 6:47.21 | 90241 | 120786 4 | 26:50.37 | 9:15.05 | 120787 | 162416 5 | 36:05.42 | 13:31.35 | 162417 | 223276
Track 1
Filename Fausto Romitelli - The Nameless City 2012 [FLAC]\01 Amok Koma.wav
Peak level 99.8 % Extraction speed 2.8 X Track quality 100.0 % Copy CRC 4D6E9A7E Accurately ripped (confidence 2) [84180420] (AR v2) Copy OK
Track 2
Filename Fausto Romitelli - The Nameless City 2012 [FLAC]\02 Flowing Down Too Slow.wav
Peak level 99.8 % Extraction speed 3.5 X Track quality 100.0 % Copy CRC 51C66BB9 Accurately ripped (confidence 2) [EDCF72EE] (AR v2) Copy OK
Track 3
Filename Fausto Romitelli - The Nameless City 2012 [FLAC]\03 Domeniche alla periferia dell'impero.wav
Peak level 98.5 % Extraction speed 3.9 X Track quality 100.0 % Copy CRC 2745168E Accurately ripped (confidence 2) [CFFD1E25] (AR v2) Copy OK
Track 4
Filename Fausto Romitelli - The Nameless City 2012 [FLAC]\04 Nell'alto dei giorni immobili.wav
Peak level 99.8 % Extraction speed 3.8 X Track quality 99.9 % Copy CRC 5CC537A3 Accurately ripped (confidence 2) [CF40EEDB] (AR v2) Copy OK
Track 5
Filename Fausto Romitelli - The Nameless City 2012 [FLAC]\05 The Nameless City.wav
Peak level 98.5 % Extraction speed 4.8 X Track quality 100.0 % Copy CRC 02387079 Accurately ripped (confidence 2) [7630D14D] (AR v2) Copy OK
All tracks accurately ripped
No errors occurred
End of status report

Содержание индексной карты (.CUE)

REM GENRE ClassicalREM DATE 2012REM DISCID 350BA005REM COMMENT "ExactAudioCopy v1.0b3"PERFORMER "Musiques Nouvelles - Jean-Paul Dessy"TITLE "Fausto Romitelli - The Nameless City"FILE "01 Amok Koma.flac" WAVE TRACK 01 AUDIO TITLE "Amok Koma" PERFORMER "Musiques Nouvelles - Jean-Paul Dessy" PREGAP 00:01:00 INDEX 01 00:00:00FILE "02 Flowing Down Too Slow.flac" WAVE TRACK 02 AUDIO TITLE "Flowing Down Too Slow" PERFORMER "Musiques Nouvelles - Jean-Paul Dessy" INDEX 01 00:00:00FILE "03 Domeniche alla periferia dell'impero.flac" WAVE TRACK 03 AUDIO TITLE "Domeniche alla periferia dell'impero" PERFORMER "Musiques Nouvelles - Jean-Paul Dessy" PREGAP 00:02:27 INDEX 01 00:00:00FILE "04 Nell'alto dei giorni immobili.flac" WAVE TRACK 04 AUDIO TITLE "Nell'alto dei giorni immobili" PERFORMER "Musiques Nouvelles - Jean-Paul Dessy" PREGAP 00:03:00 INDEX 01 00:00:00FILE "05 The Nameless City.flac" WAVE TRACK 05 AUDIO TITLE "The Nameless City" PERFORMER "Musiques Nouvelles - Jean-Paul Dessy" PREGAP 00:02:15 INDEX 01 00:00:00

Лог проверки качества

d:\>d:\aucdtect -d/-m0 d:\zzz\*.wavauCDtect: CD records authenticity detector, version 0.8.2Copyright (c) 2004 Oleg Berngardt. All rights reserved.Copyright (c) 2004 Alexander Djourik. All rights reserved.------------------------------------------------------------Processing file: [01. Amok Koma.wav]
------------------------------------------------------------This track looks like CDDA with probability 100%
------------------------------------------------------------Processing file: [02. Flowing Down Too Slow.wav]
------------------------------------------------------------This track looks like CDDA with probability 100%
------------------------------------------------------------Processing file: [03. Domeniche alla periferia dell'impero.wav]
------------------------------------------------------------This track looks like CDDA with probability 100%
------------------------------------------------------------Processing file: [04. Nell'alto dei giorni immobili.wav]
------------------------------------------------------------This track looks like CDDA with probability 100%
------------------------------------------------------------Processing file: [05. The Nameless City.wav]
------------------------------------------------------------This track looks like CDDA with probability 100%
------------------------------------------------------------Final Conclusion:------------------------------------------------------------These tracks looks like CDDA with probability 100%
Доп. информация:

Album Review

What strikes immediately in Fausto Romitelli?s work (1963-2004) is the immediacy of his musical proposals that pleases the ear. As a convinced modernist who is careful not to indulge in the arrogant fallacy of radical rupture for its own sake, the composer represents an heir of Western musical traditions ? be they scholarly or popular, ancient or current ? all the while expressing a strong sense of independence towards historical necessity or the desire to pertain to a group, to be ?heard?. By playing with coded musical structures (and evading them at the same time), his frescoes, which exhibit a fascinating expressive force, become directly accessible to the music lover yearning to take the plunge into this universe of sound. In the tradition of the electroacoustic and spectral movements, Romitelli, an enthusiastic and curious technophile, devotes himself to new technologies of amplification and transformation that make electric sounds become electrifying and, through successive distorsion, reverberation and projection, creates a three-dimensional illusion. On the occasion of his 50th anniversary, the ensemble Musiques Nouvelles, directed by Jean-Paul Dessy, retraces the arch of a decade (1990-2001) in Fausto Romitelli?s musical work and explores several pieces of music that are presented on the disc for the first time. - Cypres



Показать сообщения:    

Текущее время: 03-Дек 18:38

Часовой пояс: UTC + 3


Вы не можете начинать темы
Вы не можете отвечать на сообщения
Вы не можете редактировать свои сообщения
Вы не можете удалять свои сообщения
Вы не можете голосовать в опросах
Вы не можете прикреплять файлы к сообщениям
Вы не можете скачивать файлы