(Orchestral) Anton Bruckner - Symphonie Nr.7 (Wiener Symphoniker - Lovro von Matacic) - 1996, FLAC (image+.cue) lossless


 

[Цитировать]

Anton Bruckner
SYMPHONY NO.7 IN E MAJOR
Lovro von Matačić
VIENNA SYMPHONY ORCHESTRA
-
-
- Жанр: Orchestral
Страна-производитель диска: USA
Год издания диска: 1996
Издатель (лейбл): Hypnos
Дата записи: 24.05.1980
Аудиокодек: FLAC
Тип рипа: image+.cue
Битрейт аудио: lossless
Продолжительность: 63'27''
Источник: собственный рип
Наличие сканов в содержимом раздачи: да
Треклист:
A.Bruckner - Symphonie Nr.7:
[1] I. Allegro moderato
[2] II. Adagio. Sehr feierlich und sehr langsam
[3] III. Scherzo. Sehr schnell
[4] IV. Finale. Bewegt, doch nicht zu schnell
Исполнители:
Wiener Symphoniker - Lovro von Matačić

Лог создания рипа

Exact Audio Copy V1.0 beta 4 from 7. December 2014
EAC extraction logfile from 27. April 2015, 22:02
Wiener Symphoniker - Lovro von Matačić / A.Bruckner - Symphonie Nr.7
Used drive : HL-DT-STDVD+-RW GU90N Adapter: 1 ID: 0
Read mode : SecureUtilize accurate stream : YesDefeat audio cache : YesMake use of C2 pointers : No
Read offset correction : 102Overread into Lead-In and Lead-Out : NoFill up missing offset samples with silence : YesDelete leading and trailing silent blocks : NoNull samples used in CRC calculations : YesUsed interface : Native Win32 interface for Win NT & 2000
Used output format : User Defined EncoderSelected bitrate : 1024 kBit/sQuality : HighAdd ID3 tag : NoCommand line compressor : C:\Program Files (x86)\FLAC\flac.exeAdditional command line options : -T "COMMENT=rip by el coronel" -8 -V %source%
TOC of the extracted CD
Track | Start | Length | Start sector | End sector --------------------------------------------------------- 1 | 0:00.00 | 19:26.00 | 0 | 87449 2 | 19:26.00 | 21:45.37 | 87450 | 185361 3 | 41:11.37 | 9:43.25 | 185362 | 229111 4 | 50:54.62 | 12:30.13 | 229112 | 285374
Range status and errors
Selected range
Filename F:\Music\Bruckner 7 - WS, Matacic\CD.wav
Peak level 95.7 % Extraction speed 4.5 X Range quality 100.0 % Test CRC AF0CB246 Copy CRC AF0CB246 Copy OK
No errors occurred
AccurateRip summary
Track 1 accurately ripped (confidence 1) [6F64DDFB] (AR v2)Track 2 accurately ripped (confidence 1) [5650644F] (AR v2)Track 3 accurately ripped (confidence 1) [303ABCAA] (AR v2)Track 4 accurately ripped (confidence 1) [2697CDBF] (AR v2)
All tracks accurately ripped
End of status report
---- CUETools DB Plugin V2.1.4
[CTDB TOCID: KHOfdoiIGn1rvj047wHJbvz.h50-] disk not present in databaseSubmit result: KHOfdoiIGn1rvj047wHJbvz.h50- has been uploaded
==== Log checksum 4872997E096BD1B87FFBF82033298432BE6F19AEDBB5858479E4F955A0C2DDE8 ====

Содержание индексной карты (.CUE)

REM GENRE ClassicalREM DATE 1993REM DISCID 300EDD04REM COMMENT "ExactAudioCopy v1.0b4"CATALOG 0000000000000PERFORMER "Wiener Symphoniker - Lovro von Matacic"TITLE "A.Bruckner - Symphonie Nr.7"FILE "CD.flac" WAVE TRACK 01 AUDIO TITLE "I. Allegro moderato" PERFORMER "Wiener Symphoniker - Lovro von Matacic" INDEX 01 00:00:00 TRACK 02 AUDIO TITLE "II. Adagio. Sehr feierlich und sehr langsam" PERFORMER "Wiener Symphoniker - Lovro von Matacic" INDEX 00 19:18:37 INDEX 01 19:26:00 TRACK 03 AUDIO TITLE "III. Scherzo (sehr schnell)" PERFORMER "Wiener Symphoniker - Lovro von Matacic" INDEX 00 41:04:00 INDEX 01 41:11:37 TRACK 04 AUDIO TITLE "IV. Finale. Bewegt, doch nicht zu schnell" PERFORMER "Wiener Symphoniker - Lovro von Matacic" INDEX 00 50:47:25 INDEX 01 50:54:62



Показать сообщения:    

Текущее время: 06-Дек 18:59

Часовой пояс: UTC + 3


Вы не можете начинать темы
Вы не можете отвечать на сообщения
Вы не можете редактировать свои сообщения
Вы не можете удалять свои сообщения
Вы не можете голосовать в опросах
Вы не можете прикреплять файлы к сообщениям
Вы не можете скачивать файлы