(Orchestral) Anton Bruckner - Symphonien Nrn.3 • 8 • 9 (Wiener Philharmoniker - C.Schuricht) - 1991, FLAC (image+.cue) lossless


 

[Цитировать]

Anton Bruckner
Symphonien Nrn.3 • 8 • 9

Wiener Philharmoniker - C.Schuricht
-
-
- Жанр: Orchestral
Страна-производитель диска: Japan
Год издания диска: 1991
Издатель (лейбл): EMI
Дата записи: 1961-65
Аудиокодек: FLAC
Тип рипа: image+.cue
Битрейт аудио: lossless
Продолжительность: 3:02'45''
Источник: собственный рип
Наличие сканов в содержимом раздачи: да
Треклист:

CD1

[01] Symphonie Nr.3: I. Sehr langsam, Misterioso
[02] II. Adagio, bewegt, quasi Andante
[03] III. Ziemlich schnell
[04] VI. Allegro

Лог создания рипа

Exact Audio Copy V1.0 beta 4 from 7. December 2014
EAC extraction logfile from 4. August 2015, 23:19
Wiener Philharmoniker - Carl Schuricht / Bruckner - Symphonien 3, 8 und 9 (CD1)
Used drive : TEAC CD-W540E Adapter: 1 ID: 1
Read mode : SecureUtilize accurate stream : YesDefeat audio cache : YesMake use of C2 pointers : No
Read offset correction : 686Overread into Lead-In and Lead-Out : NoFill up missing offset samples with silence : YesDelete leading and trailing silent blocks : NoNull samples used in CRC calculations : YesUsed interface : Native Win32 interface for Win NT & 2000
Used output format : User Defined EncoderSelected bitrate : 1024 kBit/sQuality : HighAdd ID3 tag : NoCommand line compressor : C:\Program Files (x86)\FLAC\flac.exeAdditional command line options : -T "COMMENT=rip by el coronel" -8 -V %source%
TOC of the extracted CD
Track | Start | Length | Start sector | End sector --------------------------------------------------------- 1 | 0:00.00 | 19:11.02 | 0 | 86326 2 | 19:11.02 | 14:41.70 | 86327 | 152471 3 | 33:52.72 | 7:35.65 | 152472 | 186661 4 | 41:28.62 | 13:56.33 | 186662 | 249394
Range status and errors
Selected range
Filename F:\Music\Bruckner 3 8 9 Schuricht (VPO)\CD1.wav
Peak level 76.6 % Extraction speed 4.9 X Range quality 100.0 % Test CRC 00379E04 Copy CRC 00379E04 Copy OK
No errors occurred
AccurateRip summary
Track 1 cannot be verified as accurate (confidence 8) [53D5D2E6], AccurateRip returned [812415AC] (AR v2)Track 2 cannot be verified as accurate (confidence 8) [E1F5CA41], AccurateRip returned [8DEAFCAB] (AR v2)Track 3 cannot be verified as accurate (confidence 8) [0D36A3BC], AccurateRip returned [1CDDD81B] (AR v2)Track 4 cannot be verified as accurate (confidence 8) [FD451888], AccurateRip returned [72E0FC9D] (AR v2)
No tracks could be verified as accurateYou may have a different pressing from the one(s) in the database
End of status report
---- CUETools DB Plugin V2.1.4
[CTDB TOCID: 67MOi9JyJoAT0ALoZkomMFCium4-] foundSubmit result: 67MOi9JyJoAT0ALoZkomMFCium4- has been confirmedTrack | CTDB Status 1 | (5/5) Accurately ripped 2 | (5/5) Accurately ripped 3 | (5/5) Accurately ripped 4 | (5/5) Accurately ripped
==== Log checksum D585CBE7A6DB7DC6EA8CF197755F5C715448D30796B6EE186ACDA675137119FD ====

Содержание индексной карты (.CUE)

REM GENRE ClassicalREM DATE 1991REM DISCID 240CFD04REM COMMENT ExactAudioCopy v1.0b4PERFORMER "Wiener Philharmoniker - Carl Schuricht"TITLE "Bruckner - Symphonien 3, 8 und 9 (CD1)"FILE "CD1.flac" WAVE TRACK 01 AUDIO TITLE "Symphonie Nr.3: I. Sehr langsam, Misterioso" INDEX 01 00:00:00 TRACK 02 AUDIO TITLE "II. Adagio, bewegt, quasi Andante" INDEX 00 19:09:57 INDEX 01 19:11:02 TRACK 03 AUDIO TITLE "III. Ziemlich schnell" INDEX 00 33:52:02 INDEX 01 33:52:72 TRACK 04 AUDIO TITLE "VI. Allegro" INDEX 00 41:25:00 INDEX 01 41:28:62

CD2

[01] Symphonie Nr.8: I. Allegro moderato
[02] II. Scherzo (Allegro Moderato) & Trio (Langsam)
[03] III. Adagio (Feierlich langsam; doch nicht schleppend)
[04] IV. Finale (Feierlich, nicht schnell)

Лог создания рипа

Exact Audio Copy V1.0 beta 4 from 7. December 2014
EAC extraction logfile from 4. August 2015, 23:57
Wiener Philharmoniker - Carl Schuricht / Bruckner - Symphonien 3, 8 und 9 (CD2)
Used drive : TEAC CD-W540E Adapter: 1 ID: 1
Read mode : SecureUtilize accurate stream : YesDefeat audio cache : YesMake use of C2 pointers : No
Read offset correction : 686Overread into Lead-In and Lead-Out : NoFill up missing offset samples with silence : YesDelete leading and trailing silent blocks : NoNull samples used in CRC calculations : YesUsed interface : Native Win32 interface for Win NT & 2000
Used output format : User Defined EncoderSelected bitrate : 1024 kBit/sQuality : HighAdd ID3 tag : NoCommand line compressor : C:\Program Files (x86)\FLAC\flac.exeAdditional command line options : -T "COMMENT=rip by el coronel" -8 -V %source%
TOC of the extracted CD
Track | Start | Length | Start sector | End sector --------------------------------------------------------- 1 | 0:00.00 | 15:36.50 | 0 | 70249 2 | 15:36.50 | 14:02.57 | 70250 | 133456 3 | 29:39.32 | 21:45.38 | 133457 | 231369 4 | 51:24.70 | 19:42.35 | 231370 | 320054
Range status and errors
Selected range
Filename F:\Music\Bruckner 3 8 9 Schuricht (VPO)\CD2.wav
Peak level 91.9 % Extraction speed 5.1 X Range quality 100.0 % Test CRC E15553BF Copy CRC E15553BF Copy OK
No errors occurred
AccurateRip summary
Track 1 cannot be verified as accurate (confidence 6) [9D9B0B5C], AccurateRip returned [4EBB486E] (AR v2)Track 2 cannot be verified as accurate (confidence 6) [6E8C4075], AccurateRip returned [64902FE9] (AR v2)Track 3 cannot be verified as accurate (confidence 6) [8DBB2C73], AccurateRip returned [AC6CB47F] (AR v2)Track 4 cannot be verified as accurate (confidence 6) [81FB4F5E], AccurateRip returned [B145DEDE] (AR v2)
No tracks could be verified as accurateYou may have a different pressing from the one(s) in the database
End of status report
---- CUETools DB Plugin V2.1.4
[CTDB TOCID: J0IvD6hct.YtCIti9w3NU6inams-] foundSubmit result: J0IvD6hct.YtCIti9w3NU6inams- has been confirmedTrack | CTDB Status 1 | (3/3) Accurately ripped 2 | (3/3) Accurately ripped 3 | (3/3) Accurately ripped 4 | (3/3) Accurately ripped
==== Log checksum C5A882B23F5560B1D8CDD706B1F366D48BF0D7B923C130F4672651F0D2B1CD2B ====

Содержание индексной карты (.CUE)

REM GENRE ClassicalREM DATE 1991REM DISCID 3810AB04REM COMMENT ExactAudioCopy v1.0b4PERFORMER "Wiener Philharmoniker - Carl Schuricht"TITLE "Bruckner - Symphonien 3, 8 und 9 (CD2)"FILE "CD2.flac" WAVE TRACK 01 AUDIO TITLE "Symphonie Nr.8: I. Allegro moderato" INDEX 01 00:00:00 TRACK 02 AUDIO TITLE "II. Scherzo (Allegro Moderato) & Trio (Langsam)" INDEX 00 15:31:32 INDEX 01 15:36:50 TRACK 03 AUDIO TITLE "III. Adagio (Feierlich langsam; doch nicht schleppend)" INDEX 00 29:35:00 INDEX 01 29:39:32 TRACK 04 AUDIO TITLE "IV. Finale (Feierlich, nicht schnell)" INDEX 00 51:21:42 INDEX 01 51:24:70

CD3

[01] Symphonie Nr.9: I. Feierlich, misterioso
[02] II. Scherzo (Bewegt, lebhaft) und Trio (Schnell)
[03] III. Adagio (Langsam, feierlich)

Лог создания рипа

Exact Audio Copy V1.0 beta 4 from 7. December 2014
EAC extraction logfile from 5. August 2015, 0:24
Wiener Philharmoniker - Carl Schuricht / Bruckner - Symphonien 3, 8 und 9 (CD3)
Used drive : TEAC CD-W540E Adapter: 1 ID: 1
Read mode : SecureUtilize accurate stream : YesDefeat audio cache : YesMake use of C2 pointers : No
Read offset correction : 686Overread into Lead-In and Lead-Out : NoFill up missing offset samples with silence : YesDelete leading and trailing silent blocks : NoNull samples used in CRC calculations : YesUsed interface : Native Win32 interface for Win NT & 2000
Used output format : User Defined EncoderSelected bitrate : 1024 kBit/sQuality : HighAdd ID3 tag : NoCommand line compressor : C:\Program Files (x86)\FLAC\flac.exeAdditional command line options : -T "COMMENT=rip by el coronel" -8 -V %source%
TOC of the extracted CD
Track | Start | Length | Start sector | End sector --------------------------------------------------------- 1 | 0:00.00 | 25:30.52 | 0 | 114801 2 | 25:30.52 | 10:29.60 | 114802 | 162036 3 | 36:00.37 | 20:12.00 | 162037 | 252936
Range status and errors
Selected range
Filename F:\Music\Bruckner 3 8 9 Schuricht (VPO)\CD3.wav
Peak level 88.2 % Extraction speed 4.9 X Range quality 99.9 % Test CRC 0F19CA09 Copy CRC 0F19CA09 Copy OK
No errors occurred
AccurateRip summary
Track 1 cannot be verified as accurate (confidence 8) [544B2457], AccurateRip returned [E83815D9] (AR v2)Track 2 cannot be verified as accurate (confidence 8) [4B7B98DC], AccurateRip returned [B98558FD] (AR v2)Track 3 cannot be verified as accurate (confidence 8) [3E272AE6], AccurateRip returned [81E7014C] (AR v2)
No tracks could be verified as accurateYou may have a different pressing from the one(s) in the database
End of status report
---- CUETools DB Plugin V2.1.4
[CTDB TOCID: WNMJgcTGKNF8aembBkA..KoSJkg-] foundSubmit result: WNMJgcTGKNF8aembBkA..KoSJkg- has been confirmedTrack | CTDB Status 1 | (3/3) Accurately ripped 2 | (3/3) Accurately ripped 3 | (3/3) Accurately ripped
==== Log checksum 21860ABFCAEB8A5A9E327E5D09422FF595B3CD82677A90C889439CB124641210 ====

Содержание индексной карты (.CUE)

REM GENRE ClassicalREM DATE 1991REM DISCID 180D2C03REM COMMENT ExactAudioCopy v1.0b4PERFORMER "Wiener Philharmoniker - Carl Schuricht"TITLE "Bruckner - Symphonien 3, 8 und 9 (CD3)"FILE "CD3.flac" WAVE TRACK 01 AUDIO TITLE "Symphonie Nr.9: I. Feierlich, misterioso" INDEX 01 00:00:00 TRACK 02 AUDIO TITLE "II. Scherzo (Bewegt, lebhaft) und Trio (Schnell)" INDEX 00 25:25:57 INDEX 01 25:30:52 TRACK 03 AUDIO TITLE "III. Adagio (Langsam, feierlich)" INDEX 00 35:55:35 INDEX 01 36:00:37
Исполнители:
Wiener Philharmoniker - Carl Schuricht-



Показать сообщения:    

Текущее время: 11-Дек 03:21

Часовой пояс: UTC + 3


Вы не можете начинать темы
Вы не можете отвечать на сообщения
Вы не можете редактировать свои сообщения
Вы не можете удалять свои сообщения
Вы не можете голосовать в опросах
Вы не можете прикреплять файлы к сообщениям
Вы не можете скачивать файлы