(Classical) Сергей Танеев - Увертюра к "Орестее"; Увертюра на русскую тему; Увертюра ре минор - Станислав Янковский, Новосибирский академический симфонический оркестр, Thomas Sanderling - 2009, FLAC (image+.cue) lossless


 

[Цитировать]

Сергей Танеев - Увертюра к "Орестее"; Увертюра на русскую тему; Увертюра ре минор - Станислав Янковский, Новосибирский академический симфонический оркестр, Thomas Sanderling
Жанр: Classical
Год издания диска: 2009
Издатель (лейбл): Naxos
Номер по каталогу: 8.570584
Дата записи: 2007
Аудиокодек: FLAC
Тип рипа: image+.cue
Битрейт аудио: lossless
Продолжительность: 74:53
Источник: собственный рип
Наличие сканов в содержимом раздачи: да
Треклист:
Сергей Танеев (1856-1915)
[1] Увертюра к опере "Орестея", Op.6 (1889)
[2] Антракт из третьего действия оперы "Орестея": Храм Аполлона в Дельфах (1894)
[3] Адажио до мажор (1875)
[4] Увертюра на русскую тему (1882)
[5] Кантата "Памятник" на стихи А.С.Пушкина (1880) *
[6] Канцона (1883) **
[7] Увертюра ре минор (1875)
Исполнители:
Станислав Янковский кларнет **
Новосибирский государственный камерный хор филармонии *
Новосибирский академический симфонический оркестр
Thomas Sanderling

Лог создания рипа

Exact Audio Copy V1.1 from 23. June 2015
EAC extraction logfile from 29. August 2015, 20:49
Novosibirsk Academic SO, Thomas Sanderling / Taneyev - Orchestral Works
Used drive : HL-DT-STDVDRAM GU70N Adapter: 1 ID: 0
Read mode : SecureUtilize accurate stream : YesDefeat audio cache : YesMake use of C2 pointers : No
Read offset correction : 48Overread into Lead-In and Lead-Out : NoFill up missing offset samples with silence : YesDelete leading and trailing silent blocks : NoNull samples used in CRC calculations : YesUsed interface : Native Win32 interface for Win NT & 2000
Used output format : User Defined EncoderSelected bitrate : 128 kBit/sQuality : HighAdd ID3 tag : NoCommand line compressor : C:\Program Files (x86)\Exact Audio Copy\Flac\flac.exeAdditional command line options : -V -8 -T "Date=%year%" -T "Genre=%genre%" %source%
TOC of the extracted CD
Track | Start | Length | Start sector | End sector --------------------------------------------------------- 1 | 0:00.00 | 20:49.40 | 0 | 93714 2 | 20:49.40 | 5:10.74 | 93715 | 117038 3 | 26:00.39 | 5:52.31 | 117039 | 143469 4 | 31:52.70 | 17:28.03 | 143470 | 222072 5 | 49:20.73 | 4:25.20 | 222073 | 241967 6 | 53:46.18 | 6:18.67 | 241968 | 270384 7 | 60:05.10 | 14:45.65 | 270385 | 336824
Range status and errors
Selected range
Filename C:\temp\Taneyev - Orchestral Works\Taneyev - Orchestral Works.wav
Peak level 98.1 % Extraction speed 2.3 X Range quality 100.0 % Test CRC EAF435F5 Copy CRC EAF435F5 Copy OK
No errors occurred
AccurateRip summary
Track 1 accurately ripped (confidence 4) [C8CA9A41] (AR v2)Track 2 accurately ripped (confidence 5) [1F68FCB2] (AR v2)Track 3 accurately ripped (confidence 5) [429460A0] (AR v2)Track 4 accurately ripped (confidence 5) [7BC638F3] (AR v2)Track 5 accurately ripped (confidence 5) [4F19697A] (AR v2)Track 6 accurately ripped (confidence 5) [647B96BD] (AR v2)Track 7 accurately ripped (confidence 5) [630DAECB] (AR v2)
All tracks accurately ripped
End of status report
==== Log checksum 08D660A30DE3E1CDA277B792655E75A0D98899204F1FCF77827E30803ADD8418 ====



Показать сообщения:    

Текущее время: 05-Дек 23:33

Часовой пояс: UTC + 3


Вы не можете начинать темы
Вы не можете отвечать на сообщения
Вы не можете редактировать свои сообщения
Вы не можете удалять свои сообщения
Вы не можете голосовать в опросах
Вы не можете прикреплять файлы к сообщениям
Вы не можете скачивать файлы