(Classical) Ludwig van Beethoven — Symphonies № 1-9; Overtures (Cleveland Orchestra, Lorin Maazel) — 1989, APE (image+.cue) lossless


 

[Цитировать]

Symphonies № 1-9; Overtures- Жанр: Classical
Страны-производители комплекта: Австрия / Нидерланды
Год издания комплекта: 1989
Год записи фонограмм: 1978
Издатель (лейбл): CBS Masterworks
Номер по каталогу: M5K 45532
Композитор: Ludwig van Beethoven
Исполнительский коллектив: Cleveland Orchestra, cond. Lorin Maazel; Cleveland Orchestra Chorus, cond. Robert Page; Lucia Popp, Elena Obraztsova, Jon Vickers, Martti Talvela
Аудио кодек: ape
Тип рипа: image+.cue
Битрейт аудио: lossless
Продолжительность: 06h03'55"
Источник: intoclassics
Наличие сканов в содержимом раздачи: нет-

Треклист

CD 1 – 01h10'31"
Symphony № 1 C-Dur Op 21
01. I. Adagio molto; Allegro con brio [08'19"]
02. II. Andante cantabile con moto [08'48"]
03. III. Menuetto: Allegro molto e vivace [03'13"]
04. IV. Adagio; Allegro molto e vivace [05'43"]
Symphony № 6 F-Dur Op 68 «Pastorale»
05. I. Allegro ma non troppo [11'43"]
06. II. Andante molto mosso [12'52"]
07. III. Allegro [05'11"]
08. IV. Allegro [03'34"]
09. V. Allegretto [11'07"]-

CUE

REM GENRE Classical
REM DATE 1989
REM DISCID 66108609
REM COMMENT "ExactAudioCopy v1.0b3"
PERFORMER "Beethoven"
TITLE "Symphonies 1, 6"
FILE "Symphonies 1, 6.ape" WAVE
  TRACK 01 AUDIO
    TITLE "Symphony 1 C Op 21 – I. Adagio molto; Allegro con brio"
    PERFORMER "Beethoven"
    INDEX 01 00:00:00
  TRACK 02 AUDIO
    TITLE "Symphony 1 C Op 21 – II. Andante cantabile con moto"
    PERFORMER "Beethoven"
    INDEX 00 08:16:40
    INDEX 01 08:19:32
  TRACK 03 AUDIO
    TITLE "Symphony 1 C Op 21 – III. Menuetto: Allegro molto e vivace"
    PERFORMER "Beethoven"
    INDEX 00 17:06:60
    INDEX 01 17:07:65
  TRACK 04 AUDIO
    TITLE "Symphony 1 C Op 21 – IV. Adagio; Allegro molto e vivace"
    PERFORMER "Beethoven"
    INDEX 00 20:18:68
    INDEX 01 20:20:45
  TRACK 05 AUDIO
    TITLE "Symphony 6 F Op 68 «Pastorale» – I. Allegro ma non troppo"
    PERFORMER "Beethoven"
    INDEX 00 25:57:68
    INDEX 01 26:03:12
  TRACK 06 AUDIO
    TITLE "Symphony 6 F Op 68 «Pastorale» – II. Andante molto mosso"
    PERFORMER "Beethoven"
    INDEX 00 37:44:05
    INDEX 01 37:46:32
  TRACK 07 AUDIO
    TITLE "Symphony 6 F Op 68 «Pastorale» – III. Allegro"
    PERFORMER "Beethoven"
    INDEX 00 50:38:21
    INDEX 01 50:38:67
  TRACK 08 AUDIO
    TITLE "Symphony 6 F Op 68 «Pastorale» – IV. Allegro"
    PERFORMER "Beethoven"
    INDEX 00 55:50:18
    INDEX 01 55:50:25
  TRACK 09 AUDIO
    TITLE "Symphony 6 F Op 68 «Pastorale» – V. Allegretto"
    PERFORMER "Beethoven"
    INDEX 00 59:24:03
    INDEX 01 59:24:10
-CD 2 – 01h12'24"
Symphony № 2 D-Dur Op 36
01. I. Adagio molto; Allegro con brio [11'47"]
02. II. Larghetto [11'46"]
03. III. Scherzo: Allegro [03'21"]
04. IV. Allegro molto [06'11"]
Symphony № 7 A-Dur Op 92
05. I. Poco sostenuto; Vivace [14'05"]
06. II. Allegretto [09'20"]
07. III. Presto [07'14"]
08. IV. Allegro con brio [08'40"]-

CUE

REM GENRE Classical
REM DATE 1989
REM DISCID 7510F808
REM COMMENT "ExactAudioCopy v1.0b3"
PERFORMER "Beethoven"
TITLE "Symphonies 2, 7"
FILE "Symphonies 2, 7.ape" WAVE
  TRACK 01 AUDIO
    TITLE "Symphony 2 D Op 36 – I. Adagio molto; Allegro con brio"
    PERFORMER "Beethoven"
    INDEX 01 00:00:00
  TRACK 02 AUDIO
    TITLE "Symphony 2 D Op 36 – II. Larghetto"
    PERFORMER "Beethoven"
    INDEX 00 11:46:26
    INDEX 01 11:47:17
  TRACK 03 AUDIO
    TITLE "Symphony 2 D Op 36 – III. Scherzo: Allegro"
    PERFORMER "Beethoven"
    INDEX 00 23:32:11
    INDEX 01 23:32:67
  TRACK 04 AUDIO
    TITLE "Symphony 2 D Op 36 – IV. Allegro molto"
    PERFORMER "Beethoven"
    INDEX 01 26:54:10
  TRACK 05 AUDIO
    TITLE "Symphony 7 A Op 92 – I. Poco sostenuto; Vivace"
    PERFORMER "Beethoven"
    INDEX 00 33:00:52
    INDEX 01 33:04:57
  TRACK 06 AUDIO
    TITLE "Symphony 7 A Op 92 – II. Allegretto"
    PERFORMER "Beethoven"
    INDEX 00 47:09:08
    INDEX 01 47:10:07
  TRACK 07 AUDIO
    TITLE "Symphony 7 A Op 92 – III. Presto"
    PERFORMER "Beethoven"
    INDEX 01 56:30:15
  TRACK 08 AUDIO
    TITLE "Symphony 7 A Op 92 – IV. Allegro con brio"
    PERFORMER "Beethoven"
    INDEX 00 63:44:21
    INDEX 01 63:44:22
-CD 3 – 01h14'57"
Symphony № 3 Es-Dur Op 55 «Eroica»
01. I. Allegro con brio [17'33"]
02. II. Marcia funebre: Adagio assai [14'52"]
03. III. Scherzo: Allegro vivace [05'37"]
04. IV. Allegro molto [11'35"]
Symphony № 8 F-Dur Op 93
05. I. Allegro vivace e con brio [09'41"]
06. II. Allegretto scherzando [03'31"]
07. III. Tempo di Menuetto [05'01"]
08. IV. Allegro vivace [07'07"]-

CUE

REM GENRE Classical
REM DATE 1989
REM DISCID 7A119008
REM COMMENT "ExactAudioCopy v1.0b3"
PERFORMER "Beethoven"
TITLE "Symphonies 3, 8"
FILE "Symphonies 3, 8.ape" WAVE
  TRACK 01 AUDIO
    TITLE "Symphony 3 Es Op 55 «Eroica» – I. Allegro con brio"
    PERFORMER "Beethoven"
    INDEX 01 00:00:00
  TRACK 02 AUDIO
    TITLE "Symphony 3 Es Op 55 «Eroica» – II. Marcia funebre: Adagio assai"
    PERFORMER "Beethoven"
    INDEX 00 17:30:00
    INDEX 01 17:33:22
  TRACK 03 AUDIO
    TITLE "Symphony 3 Es Op 55 «Eroica» – III. Scherzo: Allegro vivace"
    PERFORMER "Beethoven"
    INDEX 01 32:25:55
  TRACK 04 AUDIO
    TITLE "Symphony 3 Es Op 55 «Eroica» – IV. Allegro molto"
    PERFORMER "Beethoven"
    INDEX 00 38:01:08
    INDEX 01 38:02:55
  TRACK 05 AUDIO
    TITLE "Symphony 8 F Op 93 – I. Allegro vivace e con brio"
    PERFORMER "Beethoven"
    INDEX 00 49:32:37
    INDEX 01 49:37:35
  TRACK 06 AUDIO
    TITLE "Symphony 8 F Op 93 – II. Allegretto scherzando"
    PERFORMER "Beethoven"
    INDEX 00 59:16:61
    INDEX 01 59:18:35
  TRACK 07 AUDIO
    TITLE "Symphony 8 F Op 93 – III. Tempo di Menuetto"
    PERFORMER "Beethoven"
    INDEX 00 62:47:47
    INDEX 01 62:49:52
  TRACK 08 AUDIO
    TITLE "Symphony 8 F Op 93 – IV. Allegro vivace"
    PERFORMER "Beethoven"
    INDEX 00 67:47:05
    INDEX 01 67:50:15
-CD 4 – 01h11'55"
Symphony № 4 B-Dur Op 60
01. I. Adagio; Allegro vivace [11'03"]
02. II. Adagio [09'03"]
03. III. Menuetto; Allegro vivace [05'39"]
04. IV. Allegro ma non troppo [06'39"]
Symphony № 5 c-moll Op 67
05. I. Allegro con brio [07'20"]
06. II. Andante con moto [10'40"]
07. III. Allegro attaco [04'54"]
08. IV. Allegro [10'15"]
09. Overture «Fidelio» E-Dur Op 72c [06'23"]-

CUE

REM GENRE Classical
REM DATE 1989
REM DISCID 7C10DA09
REM COMMENT "ExactAudioCopy v1.0b3"
PERFORMER "Beethoven"
TITLE "Symphonies 4, 5"
FILE "Symphonies 4, 5.ape" WAVE
  TRACK 01 AUDIO
    TITLE "Symphony 4 B Op 60 – I. Adagio; Allegro vivace"
    PERFORMER "Beethoven"
    INDEX 01 00:00:00
  TRACK 02 AUDIO
    TITLE "Symphony 4 B Op 60 – II. Adagio"
    PERFORMER "Beethoven"
    INDEX 00 11:01:61
    INDEX 01 11:02:60
  TRACK 03 AUDIO
    TITLE "Symphony 4 B Op 60 – III. Menuetto; Allegro vivace"
    PERFORMER "Beethoven"
    INDEX 00 20:04:12
    INDEX 01 20:05:45
  TRACK 04 AUDIO
    TITLE "Symphony 4 B Op 60 – IV. Allegro ma non troppo"
    PERFORMER "Beethoven"
    INDEX 01 25:44:60
  TRACK 05 AUDIO
    TITLE "Symphony 5 c Op 67 – I. Allegro con brio"
    PERFORMER "Beethoven"
    INDEX 00 32:18:32
    INDEX 01 32:23:32
  TRACK 06 AUDIO
    TITLE "Symphony 5 c Op 67 – II. Andante con moto"
    PERFORMER "Beethoven"
    INDEX 00 39:41:50
    INDEX 01 39:43:05
  TRACK 07 AUDIO
    TITLE "Symphony 5 c Op 67 – III. Allegro attaco"
    PERFORMER "Beethoven"
    INDEX 01 50:22:50
  TRACK 08 AUDIO
    TITLE "Symphony 5 c Op 67 – IV. Allegro"
    PERFORMER "Beethoven"
    INDEX 01 55:17:02
  TRACK 09 AUDIO
    TITLE "Overture «Fidelio» E Op 72c"
    PERFORMER "Beethoven"
    INDEX 00 65:26:62
    INDEX 01 65:31:55
-CD 5 – 01h14'08"
Symphony № 9 d-moll Op 125 «Choral»
01. I. Allegro ma non troppo [15'54"]
02. II. Molto vivace [10'04"]
03. III. Adagio molto cantabile [14'50"]
04. IV. Finale [24'41"]
05. Overture «Egmont» № 1 f-moll Op 84 [08'39"]-

CUE

REM GENRE Classical
REM DATE 1989
REM DISCID 44116005
REM COMMENT "ExactAudioCopy v1.0b3"
PERFORMER "Beethoven"
TITLE "Symphony 9"
FILE "Symphony 9.ape" WAVE
  TRACK 01 AUDIO
    TITLE "Symphony 9 d Op 125 «Choral» – I. Allegro ma non troppo"
    PERFORMER "Beethoven"
    INDEX 01 00:00:00
  TRACK 02 AUDIO
    TITLE "Symphony 9 d Op 125 «Choral» – II. Molto vivace"
    PERFORMER "Beethoven"
    INDEX 00 15:52:51
    INDEX 01 15:53:62
  TRACK 03 AUDIO
    TITLE "Symphony 9 d Op 125 «Choral» – III. Adagio molto cantabile"
    PERFORMER "Beethoven"
    INDEX 00 25:56:57
    INDEX 01 25:58:20
  TRACK 04 AUDIO
    TITLE "Symphony 9 d Op 125 «Choral» – IV. Finale"
    PERFORMER "Beethoven"
    INDEX 01 40:47:67
  TRACK 05 AUDIO
    TITLE "Overture «Egmont» 1 f Op 84"
    PERFORMER "Beethoven"
    INDEX 00 65:24:61
    INDEX 01 65:29:25

-

-

auCDtect log

-----------------------
DON'T MODIFY THIS FILE
-----------------------
PERFORMER: auCDtect Task Manager, ver. 1.5.1RC4 build 1.5.1.5
Copyright (c) 2008-2010 y-soft. All rights reserved
http://y-soft.org
ANALYZER: auCDtect: CD records authenticity detector, version 0.8.2
Copyright (c) 2004 Oleg Berngardt. All rights reserved.
Copyright (c) 2004 Alexander Djourik. All rights reserved.
FILE: Symphony 9.wav
  Size: 784686044 Hash: A0A35DAE1676174A97CABFAA236BAA46 Accuracy: -m0
  Conclusion: CDDA 99%
  Signature: 54C669555F1063360978B7B708D74FE72273EA12
FILE: Symphonies 4, 5.wav
  Size: 761088428 Hash: 51F10C5645C1E937F687F0ED625CE53E Accuracy: -m0
  Conclusion: CDDA 100%
  Signature: B715A6EAF998CA26FD0FB7D1C6EAB6113493F187
FILE: Symphonies 3, 8.wav
  Size: 793259084 Hash: C74310FF60EADCDE85AF1608D8057916 Accuracy: -m0
  Conclusion: CDDA 99%
  Signature: E5AD1271562977886DF74FF0926196CDB889286C
FILE: Symphonies 2, 7.wav
  Size: 766368668 Hash: A2A895EC44FC3584FD2C23DD10757620 Accuracy: -m0
  Conclusion: CDDA 100%
  Signature: 63DCD30DAF8C66CEB9EA5A40F9A144140F23D30A
FILE: Symphonies 1, 6.wav
  Size: 746294348 Hash: 61F17F8F3753ED1C905325033A254E92 Accuracy: -m0
  Conclusion: CDDA 99%
  Signature: 5A2592BADDA5864D0B98F4530E3E652DEBC7D4A4

-

Срез частот

-



Показать сообщения:    

Текущее время: 03-Дек 09:39

Часовой пояс: UTC + 3


Вы не можете начинать темы
Вы не можете отвечать на сообщения
Вы не можете редактировать свои сообщения
Вы не можете удалять свои сообщения
Вы не можете голосовать в опросах
Вы не можете прикреплять файлы к сообщениям
Вы не можете скачивать файлы