(Classical) Benjamin Britten - The Young Person’s Guide to the Orchestra; Suite on English Folk Tunes; Johnson over Jordan; Four Sea Interludes - Bournemouth Symphony Orchestra, Richard Hickox - 2013, FLAC (image+.cue) lossless


 

[Цитировать]

Benjamin Britten - The Young Person’s Guide to the Orchestra; Suite on English Folk Tunes; Johnson over Jordan; Four Sea Interludes - Bournemouth Symphony Orchestra, Richard Hickox
Жанр: Classical
Страна-производитель диска: UK
Год издания диска: 2013
Издатель (лейбл): Chandos Records
Номер по каталогу: CHAN 10784 X
Дата записи: 1993
Аудиокодек: FLAC
Тип рипа: image+.cue
Битрейт аудио: lossless
Продолжительность: 67:04
Источник: собственный рип
Наличие сканов в содержимом раздачи: да
Треклист:
Benjamin Britten (1913 – 1976)
[1]-[20] The Young Person’s Guide to the Orchestra, Op. 34
[21]-[25] Suite on English Folk Tunes ‘A time there was...’, Op. 90
[26]-[33] Suite from ‘Johnson over Jordan’
Compiled by Paul Hindmarsh
[34]-[37] Four Sea Interludes from ‘Peter Grimes’, Op. 33a
Исполнители:
Bournemouth Symphony Orchestra
Richard Hickox

Лог создания рипа

Exact Audio Copy V1.1 from 23. June 2015
EAC extraction logfile from 23. August 2015, 15:18
Bournemouth Symphony Orchestra, Richard Hickox / Britten - Orchestral Works
Used drive : HL-DT-STDVDRAM GU70N Adapter: 1 ID: 0
Read mode : SecureUtilize accurate stream : YesDefeat audio cache : YesMake use of C2 pointers : No
Read offset correction : 48Overread into Lead-In and Lead-Out : NoFill up missing offset samples with silence : YesDelete leading and trailing silent blocks : NoNull samples used in CRC calculations : YesUsed interface : Native Win32 interface for Win NT & 2000
Used output format : User Defined EncoderSelected bitrate : 128 kBit/sQuality : HighAdd ID3 tag : NoCommand line compressor : C:\Program Files (x86)\Exact Audio Copy\Flac\flac.exeAdditional command line options : -V -8 -T "Date=%year%" -T "Genre=%genre%" %source%
TOC of the extracted CD
Track | Start | Length | Start sector | End sector --------------------------------------------------------- 1 | 0:00.00 | 0:26.34 | 0 | 1983 2 | 0:26.34 | 0:23.06 | 1984 | 3714 3 | 0:49.40 | 0:19.20 | 3715 | 5159 4 | 1:08.60 | 0:16.17 | 5160 | 6376 5 | 1:25.02 | 0:15.34 | 6377 | 7535 6 | 1:40.36 | 0:19.12 | 7536 | 8972 7 | 1:59.48 | 0:33.49 | 8973 | 11496 8 | 2:33.22 | 1:06.71 | 11497 | 16517 9 | 3:40.18 | 0:38.65 | 16518 | 19432 10 | 4:19.08 | 0:53.14 | 19433 | 23421 11 | 5:12.22 | 0:39.46 | 23422 | 26392 12 | 5:51.68 | 1:04.22 | 26393 | 31214 13 | 6:56.15 | 1:24.56 | 31215 | 37570 14 | 8:20.71 | 1:08.07 | 37571 | 42677 15 | 9:29.03 | 0:48.25 | 42678 | 46302 16 | 10:17.28 | 0:50.55 | 46303 | 50107 17 | 11:08.08 | 0:31.00 | 50108 | 52432 18 | 11:39.08 | 1:00.55 | 52433 | 56987 19 | 12:39.63 | 1:48.00 | 56988 | 65087 20 | 14:27.63 | 2:57.40 | 65088 | 78402 21 | 17:25.28 | 2:29.00 | 78403 | 89577 22 | 19:54.28 | 2:53.50 | 89578 | 102602 23 | 22:48.03 | 2:12.10 | 102603 | 112512 24 | 25:00.13 | 1:24.60 | 112513 | 118872 25 | 26:24.73 | 6:42.40 | 118873 | 149062 26 | 33:07.38 | 3:58.00 | 149063 | 166912 27 | 37:05.38 | 1:18.25 | 166913 | 172787 28 | 38:23.63 | 0:16.50 | 172788 | 174037 29 | 38:40.38 | 2:49.35 | 174038 | 186747 30 | 41:29.73 | 3:26.00 | 186748 | 202197 31 | 44:55.73 | 1:26.30 | 202198 | 208677 32 | 46:22.28 | 1:15.35 | 208678 | 214337 33 | 47:37.63 | 2:38.20 | 214338 | 226207 34 | 50:16.08 | 3:41.20 | 226208 | 242802 35 | 53:57.28 | 3:58.65 | 242803 | 260717 36 | 57:56.18 | 4:36.00 | 260718 | 281417 37 | 62:32.18 | 4:30.58 | 281418 | 301725
Range status and errors
Selected range
Filename C:\temp\Britten - The Young Person's Guide to the Orchestra - Bournemouth SO, Hickox\Britten - Orchestral Works.wav
Peak level 93.7 % Extraction speed 2.2 X Range quality 100.0 % Test CRC 6B6C0B1B Copy CRC 6B6C0B1B Copy OK
No errors occurred
AccurateRip summary
Track 1 accurately ripped (confidence 1) [61470D84] (AR v2)Track 2 accurately ripped (confidence 1) [61D9F8D7] (AR v2)Track 3 accurately ripped (confidence 1) [8DA9A04F] (AR v2)Track 4 accurately ripped (confidence 1) [46ED5345] (AR v2)Track 5 accurately ripped (confidence 1) [F3EC2FEB] (AR v2)Track 6 accurately ripped (confidence 1) [3958342C] (AR v2)Track 7 accurately ripped (confidence 1) [2BD4DE91] (AR v2)Track 8 accurately ripped (confidence 1) [D201EF8E] (AR v2)Track 9 accurately ripped (confidence 1) [B171DA72] (AR v2)Track 10 accurately ripped (confidence 1) [9933C5E2] (AR v2)Track 11 accurately ripped (confidence 1) [FC86C8E5] (AR v2)Track 12 accurately ripped (confidence 1) [2D7EA720] (AR v2)Track 13 accurately ripped (confidence 1) [2B762E10] (AR v2)Track 14 accurately ripped (confidence 1) [BDE32ECC] (AR v2)Track 15 accurately ripped (confidence 1) [06D74A24] (AR v2)Track 16 accurately ripped (confidence 1) [8C0C6629] (AR v2)Track 17 accurately ripped (confidence 1) [E9938A92] (AR v2)Track 18 accurately ripped (confidence 1) [7E5EE126] (AR v2)Track 19 accurately ripped (confidence 1) [0C116C60] (AR v2)Track 20 accurately ripped (confidence 1) [88FD4407] (AR v2)Track 21 accurately ripped (confidence 1) [E6B4526B] (AR v2)Track 22 accurately ripped (confidence 1) [D68C9CD4] (AR v2)Track 23 accurately ripped (confidence 1) [8F26B9F3] (AR v2)Track 24 accurately ripped (confidence 1) [868D05B1] (AR v2)Track 25 accurately ripped (confidence 1) [7A63B236] (AR v2)Track 26 accurately ripped (confidence 1) [C6988B6E] (AR v2)Track 27 accurately ripped (confidence 1) [FFAFB61B] (AR v2)Track 28 accurately ripped (confidence 1) [1BEC6A5A] (AR v2)Track 29 accurately ripped (confidence 1) [9B2E1AD8] (AR v2)Track 30 accurately ripped (confidence 1) [E52149E0] (AR v2)Track 31 accurately ripped (confidence 1) [B7D8732A] (AR v2)Track 32 accurately ripped (confidence 1) [3BDEBE05] (AR v2)Track 33 accurately ripped (confidence 1) [77BF6C2F] (AR v2)Track 34 accurately ripped (confidence 1) [658514B4] (AR v2)Track 35 accurately ripped (confidence 1) [8F342160] (AR v2)Track 36 accurately ripped (confidence 1) [766B6D1D] (AR v2)Track 37 accurately ripped (confidence 1) [FBA92370] (AR v2)
All tracks accurately ripped
End of status report
==== Log checksum 96D8D98EB7BCA90EE3C9F7822ABE1047C596C8261208157093654CFCEBB1C31E ====



Показать сообщения:    

Текущее время: 10-Дек 13:53

Часовой пояс: UTC + 3


Вы не можете начинать темы
Вы не можете отвечать на сообщения
Вы не можете редактировать свои сообщения
Вы не можете удалять свои сообщения
Вы не можете голосовать в опросах
Вы не можете прикреплять файлы к сообщениям
Вы не можете скачивать файлы