(Classical) Elgar - Enigma Variations, In the South, Pomp and Circumstance March - The Royal Philharmonic Orchestra, Yehudi Menuhin - 1994, FLAC (image+.cue) lossless


 

[Цитировать]

Elgar - Enigma Variations, In the South, Pomp and Circumstance March
Жанр: Classical
Страна-производитель диска: EEC
Год издания диска: 1994
Издатель (лейбл): Centurion Music Ltd.
Номер по каталогу: 204418-201
Дата записи: 1994
Аудиокодек: FLAC
Тип рипа: image+.cue
Битрейт аудио: lossless
Продолжительность: 00:59:19
Источник: собственный рип
Наличие сканов в содержимом раздачи: да
Треклист:
Variations on an original theme, 'Enigma' Opus 36
01. Enigma theme
02. Andante (C.A.E)
03. Allegro (H.D.S-P)
04. Allegretto (R.B.T)
05. Allegro di molto (W.M.B)
06. Moderato (R.P.A)
07. Andantino (Ysobel)
08. Presto (Troyte)
09. Alegretto (W.N)
10. Adagio (Nimrod)
11. Alegretto (Dorabella) Intermezzo
12. Allegro di molto (G.R.S)
13. Andante (B.G.N)
14. Moderato Romanza
15. Allegro (E.D.U) Finale
16. In The South, (ALASSIO) Opus 50
17. Pomp And Circumstance March No. 4 in G. Opus 39
Исполнители:
The Royal Philharmonic Orchestra
Conductor: Yehudi Menuhin

Лог создания рипа

Exact Audio Copy V1.0 beta 3 from 29. August 2011
Отчёт EAC об извлечении, выполненном 26. августа 2015, 23:07
The Royal Philharmonic Orchestra / Elgar - Enigma Variations, In the South, Pomp and Circumstance March
Дисковод: ASUS DRW-1814BL Adapter: 1 ID: 1
Режим чтения : ДостоверностьИспользование точного потока : ДаОтключение кэша аудио : ДаИспользование указателей C2 : Нет
Коррекция смещения при чтении : 6Способность читать области Lead-in и Lead-out : НетЗаполнение пропущенных сэмплов тишиной : ДаУдаление блоков с тишиной в начале и конце : НетПри вычислениях CRC использовались нулевые сэмплы : ДаИнтерфейс : Встроенный Win32-интерфейс для Win NT/2000
Выходной формат : Пользовательский кодировщикВыбранный битрейт : 128 kBit/sКачество : ВысокийДобавление ID3-тега : НетУтилита сжатия : C:\Program Files\Exact Audio Copy\Flac\flac.exeДополнительные параметры : -V -8 -T "Date=%year%" -T "Genre=%genre%" %source%
TOC извлечённого CD
Трек | Старт | Длительность | Начальный сектор | Конечный сектор --------------------------------------------------------------------- 1 | 0:00.32 | 1:30.08 | 32 | 6789 2 | 1:30.40 | 1:56.35 | 6790 | 15524 3 | 3:27.00 | 0:53.32 | 15525 | 19531 4 | 4:20.32 | 1:21.05 | 19532 | 25611 5 | 5:41.37 | 0:34.30 | 25612 | 28191 6 | 6:15.67 | 2:17.50 | 28192 | 38516 7 | 8:33.42 | 1:18.13 | 38517 | 44379 8 | 9:51.55 | 1:03.17 | 44380 | 49121 9 | 10:54.72 | 1:52.20 | 49122 | 57541 10 | 12:47.17 | 4:02.08 | 57542 | 75699 11 | 16:49.25 | 2:54.55 | 75700 | 88804 12 | 19:44.05 | 1:01.57 | 88805 | 93436 13 | 20:45.62 | 2:33.33 | 93437 | 104944 14 | 23:19.20 | 3:11.32 | 104945 | 119301 15 | 26:30.52 | 5:50.58 | 119302 | 145609 16 | 32:21.35 | 21:52.05 | 145610 | 244014 17 | 54:13.40 | 5:09.67 | 244015 | 267256
Характеристики диапазона извлечения и сообщения об ошибках
Выбранный диапазон
Имя файла C:\Documents and Settings\biotox\Рабочий стол\Новая папка\The Royal Philharmonic Orchestra - Elgar - Enigma Variations, In the South, Pomp and Circumstance March.wav
Пиковый уровень 100.0 % Скорость извлечения 8.3 X Качество диапазона 100.0 % CRC теста CED8A359 CRC копии CED8A359 Копирование... OK
Ошибок не произошло
AccurateRip: сводка
Трек 1 : извлечено точно (доверие 3) [DCB73170] (AR v2)Трек 2 : извлечено точно (доверие 3) [89246DEE] (AR v2)Трек 3 : извлечено точно (доверие 3) [8FF9BF64] (AR v2)Трек 4 : извлечено точно (доверие 3) [1B4B1E91] (AR v2)Трек 5 : извлечено точно (доверие 3) [9FD07EE8] (AR v2)Трек 6 : извлечено точно (доверие 3) [9395DDFA] (AR v2)Трек 7 : извлечено точно (доверие 3) [19079135] (AR v2)Трек 8 : извлечено точно (доверие 3) [A9806CD7] (AR v2)Трек 9 : извлечено точно (доверие 3) [558C2DE0] (AR v2)Трек 10 : извлечено точно (доверие 3) [466F3689] (AR v2)Трек 11 : извлечено точно (доверие 3) [5F8AB376] (AR v2)Трек 12 : извлечено точно (доверие 3) [C0499296] (AR v2)Трек 13 : извлечено точно (доверие 3) [56ED8C51] (AR v2)Трек 14 : извлечено точно (доверие 3) [C44EEFBA] (AR v2)Трек 15 : извлечено точно (доверие 3) [F772CBAD] (AR v2)Трек 16 : извлечено точно (доверие 3) [AD9B8BC3] (AR v2)Трек 17 : извлечено точно (доверие 3) [A7184E34] (AR v2)
Все треки извлечены точно
Конец отчёта
==== Контрольная сумма отчёта 7B97628658C027122CD73A56E2CB212138CFB6E3A29694FF599C1AE5C3E26061 ====

Замер динамического диапазона

foobar2000 1.2.9 / Замер динамического диапазона (DR) 1.1.1Дата отчёта: 2015-08-26 23:25:39
--------------------------------------------------------------------------------Анализ: The Royal Philharmonic Orchestra / Elgar - Enigma Variations, In the South, Pomp and Circumstance March--------------------------------------------------------------------------------
DR Пики RMS Продолжительность трека--------------------------------------------------------------------------------DR12 -16.03 дБ -33.50 дБ 1:30 01-Enigma themeDR13 -1.31 дБ -22.22 дБ 1:56 02-Andante (C.A.E)DR12 -11.55 дБ -31.06 дБ 0:53 03-Allegro (H.D.S-P)DR12 -5.39 дБ -25.93 дБ 1:21 04-Allegretto (R.B.T)DR9 -0.22 дБ -12.30 дБ 0:34 05-Allegro di molto (W.M.B)DR13 -6.99 дБ -28.02 дБ 2:18 06-Moderato (R.P.A)DR12 -9.93 дБ -29.58 дБ 1:18 07-Andantino (Ysobel)DR10 0.00 дБ -13.18 дБ 1:03 08-Presto (Troyte)DR12 -6.88 дБ -26.26 дБ 1:52 09-Alegretto (W.N)DR12 0.00 дБ -18.96 дБ 4:02 10-Adagio (Nimrod)DR13 -16.46 дБ -35.65 дБ 2:55 11-Alegretto (Dorabella) IntermezzoDR10 -0.08 дБ -14.14 дБ 1:02 12-Allegro di molto (G.R.S)DR11 -10.47 дБ -30.55 дБ 2:33 13-Andante (B.G.N)DR15 -8.42 дБ -31.65 дБ 3:11 14-Moderato RomanzaDR10 -0.25 дБ -14.02 дБ 5:51 15-Allegro (E.D.U) FinaleDR12 -0.93 дБ -18.12 дБ 21:52 16-In The South, (ALASSIO) Op.50DR10 0.00 дБ -13.59 дБ 5:10 17-Pomp And Circumstance March No.4 in G, Op. 39--------------------------------------------------------------------------------
Количество треков: 17Реальные значения DR: DR12
Частота: 44100 ГцКаналов: 2Разрядность: 16Битрейт: 620 кбит/сКодек: FLAC================================================================================



Показать сообщения:    

Текущее время: 03-Дек 03:19

Часовой пояс: UTC + 3


Вы не можете начинать темы
Вы не можете отвечать на сообщения
Вы не можете редактировать свои сообщения
Вы не можете удалять свои сообщения
Вы не можете голосовать в опросах
Вы не можете прикреплять файлы к сообщениям
Вы не можете скачивать файлы