(Classical) Franz Schubert — The 10 Symphonies; Fragments (D 615 & 708a) (Academy of St. Martin in the Fields, Neville Marriner) — 1984, FLAC (tracks+.cue) lossless


 

[Цитировать]

The 10 Symphonies; Fragments (D 615 & 708a)-
Жанр: Classical
Страны-производители комплекта: Нидерланды / Германия
Издатель (лейбл): Philips
Номер по каталогу: 470-886-2
Год издания комплекта: 1984
Годы записи фонограмм: 1981-1984
Композитор: Franz Peter Schubert
Исполнительский коллектив: Academy of St. Martin in the Fields, cond. Neville Marriner
Аудио кодек: flac
Тип рипа: tracks+.cue
Битрейт аудио: lossless
Продолжительность: 06h07'39"
Источник: What.CD
Наличие сканов в содержимом раздачи: да-

Треклист

CD 1 – 00h54'35"
Symphony № 1 D-Dur D 82
01. I. Adagio – Allegro vivace [11'50"]
02. II. Andante [07'46"]
03. III. Menuetto – Allegretto [04'48"]
04. IV. Allegro vivace [06'11"]
Symphony № 3 D-Dur D 200
05. I. Adagio maestoso – Allegro con brio [09'11"]
06. II. Allegretto [04'35"]
07. III. Menuetto – Vivace – Trio [03'45"]
08. IV. Presto vivace [06'29"]-

EAC log

Exact Audio Copy V1.0 beta 3 from 29. August 2011
EAC extraction logfile from 11. March 2012, 8:58
Neville Marriner, Academy of St. Martin-in-the-Fields / The Ten Symphonies - d1
Used drive  : TOSHIBA DVD-ROM SD-R2512   Adapter: 1  ID: 0
Read mode               : Secure
Utilize accurate stream : Yes
Defeat audio cache      : Yes
Make use of C2 pointers : No
Read offset correction                      : 116
Overread into Lead-In and Lead-Out          : No
Fill up missing offset samples with silence : Yes
Delete leading and trailing silent blocks   : No
Null samples used in CRC calculations       : Yes
Used interface                              : Native Win32 interface for Win NT & 2000
Gap handling                                : Appended to previous track
Used output format              : User Defined Encoder
Selected bitrate                : 1024 kBit/s
Quality                         : High
Add ID3 tag                     : No
Command line compressor         : C:\Program Files\Exact Audio Copy\FLAC\flac.exe
Additional command line options : -8 -V -T "ARTIST=%artist%" -T "TITLE=%title%" -T "ALBUM=%albumtitle%" -T "DATE=%year%" -T "TRACKNUMBER=%tracknr%" -T "GENRE=%genre%" -T "PERFORMER=%albuminterpret%" -T "COMPOSER=%composer%" %haslyrics%--tag-from-file=LYRICS="%lyricsfile%"%haslyrics% -T "ALBUMARTIST=%albumartist%" -T "DISCNUMBER=%cdnumber%" -T "TOTALDISCS=%totalcds%" -T "TOTALTRACKS=%numtracks%" -T "COMMENT=%comment%" %source% -o %dest%
TOC of the extracted CD
     Track |   Start  |  Length  | Start sector | End sector
    ---------------------------------------------------------
        1  |  0:00.32 | 11:50.00 |        32    |    53281
        2  | 11:50.32 |  7:46.00 |     53282    |    88231
        3  | 19:36.32 |  4:48.00 |     88232    |   109831
        4  | 24:24.32 |  6:11.00 |    109832    |   137656
        5  | 30:35.32 |  9:11.00 |    137657    |   178981
        6  | 39:46.32 |  4:35.00 |    178982    |   199606
        7  | 44:21.32 |  3:45.00 |    199607    |   216481
        8  | 48:06.32 |  6:28.38 |    216482    |   245619
Track  1
     Filename C:\working group\01 - Symphony No. 1 in D, D.82 - Adagio - Allegro vivace.wav
     Pre-gap length  0:00:02.42
     Peak level 99.1 %
     Extraction speed 2.7 X
     Track quality 100.0 %
     Test CRC FE0F638C
     Copy CRC FE0F638C
     Accurately ripped (confidence 13)  [ACEDA4F4]  (AR v1)
     Copy OK
Track  2
     Filename C:\working group\02 - Symphony No. 1 in D, D.82 - Andante.wav
     Pre-gap length  0:00:09.00
     Peak level 48.1 %
     Extraction speed 3.2 X
     Track quality 100.0 %
     Test CRC 3F61B81B
     Copy CRC 3F61B81B
     Accurately ripped (confidence 13)  [1B002DCB]  (AR v1)
     Copy OK
Track  3
     Filename C:\working group\03 - Symphony No. 1 in D, D.82 - Allegro.wav
     Pre-gap length  0:00:06.00
     Peak level 74.3 %
     Extraction speed 3.3 X
     Track quality 100.0 %
     Test CRC 6C519BD9
     Copy CRC 6C519BD9
     Accurately ripped (confidence 13)  [365EA921]  (AR v1)
     Copy OK
Track  4
     Filename C:\working group\04 - Symphony No. 1 in D, D.82 - Allegro vivace.wav
     Pre-gap length  0:00:07.00
     Peak level 97.7 %
     Extraction speed 3.4 X
     Track quality 100.0 %
     Test CRC 9682F260
     Copy CRC 9682F260
     Accurately ripped (confidence 13)  [E8409963]  (AR v1)
     Copy OK
Track  5
     Filename C:\working group\05 - Symphony No. 3 in D, D.200 - Adagio maestoso - Allegro con brio.wav
     Pre-gap length  0:00:10.00
     Peak level 77.1 %
     Extraction speed 3.6 X
     Track quality 100.0 %
     Test CRC CF15E411
     Copy CRC CF15E411
     Accurately ripped (confidence 13)  [A8842D8A]  (AR v1)
     Copy OK
Track  6
     Filename C:\working group\06 - Symphony No. 3 in D, D.200 - Allegretto.wav
     Pre-gap length  0:00:01.00
     Peak level 34.6 %
     Extraction speed 3.3 X
     Track quality 100.0 %
     Test CRC 3257631D
     Copy CRC 3257631D
     Accurately ripped (confidence 13)  [4A1EF79A]  (AR v1)
     Copy OK
Track  7
     Filename C:\working group\07 - Symphony No. 3 in D, D.200 - Menuetto (Vivace).wav
     Pre-gap length  0:00:00.49
     Peak level 77.1 %
     Extraction speed 3.3 X
     Track quality 100.0 %
     Test CRC 30CFE4D8
     Copy CRC 30CFE4D8
     Accurately ripped (confidence 12)  [B4875DAD]  (AR v1)
     Copy OK
Track  8
     Filename C:\working group\08 - Symphony No. 3 in D, D.200 - Presto. Vivace.wav
     Pre-gap length  0:00:00.49
     Peak level 92.8 %
     Extraction speed 3.4 X
     Track quality 100.0 %
     Test CRC 9A475797
     Copy CRC 9A475797
     Accurately ripped (confidence 13)  [A4F9D2B1]  (AR v1)
     Copy OK
All tracks accurately ripped
No errors occurred
End of status report
==== Log checksum BB63C60AA88246CBFB4AF874C1E17F41BF9DB035B1173FFB26084B8C30A2E225 ====

-

CUE

REM GENRE Classical
REM DATE 1984
REM DISCID 810CCA08
REM COMMENT "ExactAudioCopy v1.0b3"
PERFORMER "Neville Marriner, Academy of St. Martin-in-the-Fields"
TITLE "The Ten Symphonies - d1"
FILE "01 - Symphony No. 1 in D, D.82 - Adagio - Allegro vivace.flac" WAVE
  TRACK 01 AUDIO
    TITLE "Symphony No. 1 in D, D.82 - Adagio - Allegro vivace"
    PERFORMER "Neville Marriner, Academy of St. Martin-in-the-Fields"
    INDEX 01 00:00:00
FILE "02 - Symphony No. 1 in D, D.82 - Andante.flac" WAVE
  TRACK 02 AUDIO
    TITLE "Symphony No. 1 in D, D.82 - Andante"
    PERFORMER "Neville Marriner, Academy of St. Martin-in-the-Fields"
    INDEX 01 00:00:00
FILE "03 - Symphony No. 1 in D, D.82 - Allegro.flac" WAVE
  TRACK 03 AUDIO
    TITLE "Symphony No. 1 in D, D.82 - Allegro"
    PERFORMER "Neville Marriner, Academy of St. Martin-in-the-Fields"
    INDEX 01 00:00:00
FILE "04 - Symphony No. 1 in D, D.82 - Allegro vivace.flac" WAVE
  TRACK 04 AUDIO
    TITLE "Symphony No. 1 in D, D.82 - Allegro vivace"
    PERFORMER "Neville Marriner, Academy of St. Martin-in-the-Fields"
    INDEX 01 00:00:00
FILE "05 - Symphony No. 3 in D, D.200 - Adagio maestoso - Allegro con brio.flac" WAVE
  TRACK 05 AUDIO
    TITLE "Symphony No. 3 in D, D.200 - Adagio maestoso - Allegro con brio"
    PERFORMER "Neville Marriner, Academy of St. Martin-in-the-Fields"
    INDEX 01 00:00:00
FILE "06 - Symphony No. 3 in D, D.200 - Allegretto.flac" WAVE
  TRACK 06 AUDIO
    TITLE "Symphony No. 3 in D, D.200 - Allegretto"
    PERFORMER "Neville Marriner, Academy of St. Martin-in-the-Fields"
    INDEX 01 00:00:00
FILE "07 - Symphony No. 3 in D, D.200 - Menuetto (Vivace).flac" WAVE
  TRACK 07 AUDIO
    TITLE "Symphony No. 3 in D, D.200 - Menuetto (Vivace)"
    PERFORMER "Neville Marriner, Academy of St. Martin-in-the-Fields"
    INDEX 01 00:00:00
FILE "08 - Symphony No. 3 in D, D.200 - Presto. Vivace.flac" WAVE
  TRACK 08 AUDIO
    TITLE "Symphony No. 3 in D, D.200 - Presto. Vivace "
    PERFORMER "Neville Marriner, Academy of St. Martin-in-the-Fields"
    INDEX 01 00:00:00
-CD 2 – 00h59'27"
Symphony № 2 B-Dur D 125
01. I. Largo – Allegro vivace [10'43"]
02. II. Andante [08'01"]
03. III. Menuetto – Allegro vivace – Trio [03'04"]
04. IV. Presto vivace [05'52"]
Symphony № 6 C-Dur D 589
05. I. Adagio – Allegretto [07'30"]
06. II. Andante [07'47"]
07. III. Scherzo – Presto [06'08"]
08. IV. Allegro moderato [10'22"]-

EAC log

Exact Audio Copy V1.0 beta 3 from 29. August 2011
EAC extraction logfile from 11. March 2012, 10:59
Neville Marriner, Academy of St. Martin-in-the-Fields / The 10 Symphonies - d2
Used drive  : TOSHIBA DVD-ROM SD-R2512   Adapter: 1  ID: 0
Read mode               : Secure
Utilize accurate stream : Yes
Defeat audio cache      : Yes
Make use of C2 pointers : No
Read offset correction                      : 116
Overread into Lead-In and Lead-Out          : No
Fill up missing offset samples with silence : Yes
Delete leading and trailing silent blocks   : No
Null samples used in CRC calculations       : Yes
Used interface                              : Native Win32 interface for Win NT & 2000
Gap handling                                : Appended to previous track
Used output format              : User Defined Encoder
Selected bitrate                : 1024 kBit/s
Quality                         : High
Add ID3 tag                     : No
Command line compressor         : C:\Program Files\Exact Audio Copy\FLAC\flac.exe
Additional command line options : -8 -V -T "ARTIST=%artist%" -T "TITLE=%title%" -T "ALBUM=%albumtitle%" -T "DATE=%year%" -T "TRACKNUMBER=%tracknr%" -T "GENRE=%genre%" -T "PERFORMER=%albuminterpret%" -T "COMPOSER=%composer%" %haslyrics%--tag-from-file=LYRICS="%lyricsfile%"%haslyrics% -T "ALBUMARTIST=%albumartist%" -T "DISCNUMBER=%cdnumber%" -T "TOTALDISCS=%totalcds%" -T "TOTALTRACKS=%numtracks%" -T "COMMENT=%comment%" %source% -o %dest%
TOC of the extracted CD
     Track |   Start  |  Length  | Start sector | End sector
    ---------------------------------------------------------
        1  |  0:00.32 | 10:43.00 |        32    |    48256
        2  | 10:43.32 |  8:01.00 |     48257    |    84331
        3  | 18:44.32 |  3:04.00 |     84332    |    98131
        4  | 21:48.32 |  5:52.00 |     98132    |   124531
        5  | 27:40.32 |  7:30.00 |    124532    |   158281
        6  | 35:10.32 |  7:47.00 |    158282    |   193306
        7  | 42:57.32 |  6:08.00 |    193307    |   220906
        8  | 49:05.32 | 10:22.00 |    220907    |   267556
Track  1
     Filename C:\working group\01 - Symphony No. 2 in B flat - Largo - Alegro vivace.wav
     Pre-gap length  0:00:02.42
     Peak level 95.5 %
     Extraction speed 2.6 X
     Track quality 100.0 %
     Test CRC 9DD26B18
     Copy CRC 9DD26B18
     Accurately ripped (confidence 17)  [B5417976]  (AR v1)
     Copy OK
Track  2
     Filename C:\working group\02 - Symphony No. 2 in B flat - Andante.wav
     Pre-gap length  0:00:05.00
     Peak level 54.2 %
     Extraction speed 3.0 X
     Track quality 100.0 %
     Test CRC C3DBA3C1
     Copy CRC C3DBA3C1
     Accurately ripped (confidence 17)  [DB966B51]  (AR v1)
     Copy OK
Track  3
     Filename C:\working group\03 - Symphony No. 2 in B flat - Allegro vivace.wav
     Pre-gap length  0:00:06.00
     Peak level 81.5 %
     Extraction speed 2.9 X
     Track quality 100.0 %
     Test CRC 8742BBEF
     Copy CRC 8742BBEF
     Accurately ripped (confidence 17)  [6827944A]  (AR v1)
     Copy OK
Track  4
     Filename C:\working group\04 - Symphony No. 2 in B flat - Presto.wav
     Pre-gap length  0:00:05.00
     Peak level 95.5 %
     Extraction speed 3.2 X
     Track quality 100.0 %
     Test CRC 0A20BF36
     Copy CRC 0A20BF36
     Accurately ripped (confidence 16)  [0F677598]  (AR v1)
     Copy OK
Track  5
     Filename C:\working group\05 - Symphony No. 6 in C - Adagio.wav
     Pre-gap length  0:00:08.00
     Peak level 95.5 %
     Extraction speed 3.2 X
     Track quality 100.0 %
     Test CRC D5D90B33
     Copy CRC D5D90B33
     Accurately ripped (confidence 16)  [1D52B112]  (AR v1)
     Copy OK
Track  6
     Filename C:\working group\06 - Symphony No. 6 in C -Andante.wav
     Pre-gap length  0:00:07.00
     Peak level 75.0 %
     Extraction speed 3.2 X
     Track quality 100.0 %
     Test CRC 373F19A0
     Copy CRC 373F19A0
     Accurately ripped (confidence 16)  [309F56BF]  (AR v1)
     Copy OK
Track  7
     Filename C:\working group\07 - Symphony No. 6 in C -Scherzo.wav
     Pre-gap length  0:00:04.00
     Peak level 81.5 %
     Extraction speed 3.1 X
     Track quality 100.0 %
     Test CRC 2FB04FE4
     Copy CRC 2FB04FE4
     Accurately ripped (confidence 16)  [83C49B2A]  (AR v1)
     Copy OK
Track  8
     Filename C:\working group\08 - Symphony No. 6 in C - Allegro Moderator.wav
     Pre-gap length  0:00:07.00
     Peak level 95.5 %
     Extraction speed 3.3 X
     Track quality 100.0 %
     Test CRC F08E7562
     Copy CRC F08E7562
     Accurately ripped (confidence 15)  [13207E44]  (AR v1)
     Copy OK
All tracks accurately ripped
No errors occurred
End of status report
==== Log checksum DF1F2C4E0700FB836C2208EC82C41A2065871D761C66AD1E3062031E5D9AEAF2 ====

-

CUE

REM GENRE Symphony
REM DATE 1983
REM DISCID 620DEF08
REM COMMENT "ExactAudioCopy v1.0b3"
PERFORMER "Neville Marriner, Academy of St. Martin-in-the-Fields"
TITLE "The 10 Symphonies - d2"
FILE "01 - Symphony No. 2 in B flat - Largo - Alegro vivace.flac" WAVE
  TRACK 01 AUDIO
    TITLE "Symphony No. 2 in B flat - Largo - Alegro vivace"
    PERFORMER "Neville Marriner, Academy of St. Martin-in-the-Fields"
    INDEX 01 00:00:00
FILE "02 - Symphony No. 2 in B flat - Andante.flac" WAVE
  TRACK 02 AUDIO
    TITLE "Symphony No. 2 in B flat - Andante"
    PERFORMER "Neville Marriner, Academy of St. Martin-in-the-Fields"
    INDEX 01 00:00:00
FILE "03 - Symphony No. 2 in B flat - Allegro vivace.flac" WAVE
  TRACK 03 AUDIO
    TITLE "Symphony No. 2 in B flat - Allegro vivace"
    PERFORMER "Neville Marriner, Academy of St. Martin-in-the-Fields"
    INDEX 01 00:00:00
FILE "04 - Symphony No. 2 in B flat - Presto.flac" WAVE
  TRACK 04 AUDIO
    TITLE "Symphony No. 2 in B flat - Presto"
    PERFORMER "Neville Marriner, Academy of St. Martin-in-the-Fields"
    INDEX 01 00:00:00
FILE "05 - Symphony No. 6 in C - Adagio.flac" WAVE
  TRACK 05 AUDIO
    TITLE "Symphony No. 6 in C - Adagio"
    PERFORMER "Neville Marriner, Academy of St. Martin-in-the-Fields"
    INDEX 01 00:00:00
FILE "06 - Symphony No. 6 in C -Andante.flac" WAVE
  TRACK 06 AUDIO
    TITLE "Symphony No. 6 in C -Andante"
    PERFORMER "Neville Marriner, Academy of St. Martin-in-the-Fields"
    INDEX 01 00:00:00
FILE "07 - Symphony No. 6 in C -Scherzo.flac" WAVE
  TRACK 07 AUDIO
    TITLE "Symphony No. 6 in C -Scherzo"
    PERFORMER "Neville Marriner, Academy of St. Martin-in-the-Fields"
    INDEX 01 00:00:00
FILE "08 - Symphony No. 6 in C - Allegro Moderator.flac" WAVE
  TRACK 08 AUDIO
    TITLE "Symphony No. 6 in C - Allegro Moderator"
    PERFORMER "Neville Marriner, Academy of St. Martin-in-the-Fields"
    INDEX 01 00:00:00
-CD 3 – 01h00'04"
Symphony № 4 c-moll D 417 «Tragische»
01. I. Adagio molto – Allegro vivace [08'58"]
02. II. Andante [09'52"]
03. III. Menuetto – Allegro vivace – Trio [03'16"]
04. IV. Allegro [10'19"]
Symphony № 5 B-Dur D 485
05. I. Allegro [06'55"]
06. II. Andante con moto [10'04"]
07. III. Menuetto – Allegro molto [05'04"]
08. IV. Allegro vivace [05'35"]-

EAC log

Exact Audio Copy V1.0 beta 3 from 29. August 2011
EAC extraction logfile from 11. March 2012, 11:49
Neville Marriner, Academy of St. Martin-in-the-Fields / The 10 Symphonies - d3
Used drive  : TOSHIBA DVD-ROM SD-R2512   Adapter: 1  ID: 0
Read mode               : Secure
Utilize accurate stream : Yes
Defeat audio cache      : Yes
Make use of C2 pointers : No
Read offset correction                      : 116
Overread into Lead-In and Lead-Out          : No
Fill up missing offset samples with silence : Yes
Delete leading and trailing silent blocks   : No
Null samples used in CRC calculations       : Yes
Used interface                              : Native Win32 interface for Win NT & 2000
Gap handling                                : Appended to previous track
Used output format              : User Defined Encoder
Selected bitrate                : 1024 kBit/s
Quality                         : High
Add ID3 tag                     : No
Command line compressor         : C:\Program Files\Exact Audio Copy\FLAC\flac.exe
Additional command line options : -8 -V -T "ARTIST=%artist%" -T "TITLE=%title%" -T "ALBUM=%albumtitle%" -T "DATE=%year%" -T "TRACKNUMBER=%tracknr%" -T "GENRE=%genre%" -T "PERFORMER=%albuminterpret%" -T "COMPOSER=%composer%" %haslyrics%--tag-from-file=LYRICS="%lyricsfile%"%haslyrics% -T "ALBUMARTIST=%albumartist%" -T "DISCNUMBER=%cdnumber%" -T "TOTALDISCS=%totalcds%" -T "TOTALTRACKS=%numtracks%" -T "COMMENT=%comment%" %source% -o %dest%
TOC of the extracted CD
     Track |   Start  |  Length  | Start sector | End sector
    ---------------------------------------------------------
        1  |  0:00.33 |  8:57.55 |        33    |    40362
        2  |  8:58.13 |  9:52.17 |     40363    |    84779
        3  | 18:50.30 |  3:16.28 |     84780    |    99507
        4  | 22:06.58 | 10:18.62 |     99508    |   145919
        5  | 32:25.45 |  6:55.13 |    145920    |   177057
        6  | 39:20.58 | 10:04.37 |    177058    |   222394
        7  | 49:25.20 |  5:04.15 |    222395    |   245209
        8  | 54:29.35 |  5:35.20 |    245210    |   270354
Track  1
     Filename C:\working group\01 - Symphony No. 4 in C minor (''Tragic''), D. 417- Adagio molto , Allegro vivace.wav
     Pre-gap length  0:00:02.44
     Peak level 100.0 %
     Extraction speed 2.6 X
     Track quality 100.0 %
     Test CRC 440C3271
     Copy CRC 440C3271
     Accurately ripped (confidence 2)  [BBF4E4EA]  (AR v2)
     Copy OK
Track  2
     Filename C:\working group\02 - Symphony No. 4 in C minor (''Tragic''), D. 417- Andante.wav
     Pre-gap length  0:00:10.77
     Peak level 76.2 %
     Extraction speed 3.2 X
     Track quality 100.0 %
     Test CRC 0B12F812
     Copy CRC 0B12F812
     Accurately ripped (confidence 2)  [667BF5D1]  (AR v2)
     Copy OK
Track  3
     Filename C:\working group\03 - Symphony No. 4 in C minor (''Tragic''), D. 417- Menuetto & Trio, Allegro vivace.wav
     Pre-gap length  0:00:08.89
     Peak level 89.9 %
     Extraction speed 3.1 X
     Track quality 100.0 %
     Test CRC 92E2C530
     Copy CRC 92E2C530
     Accurately ripped (confidence 2)  [2306475E]  (AR v2)
     Copy OK
Track  4
     Filename C:\working group\04 - Symphony No. 4 in C minor (''Tragic''), D. 417- Allegro.wav
     Pre-gap length  0:00:09.20
     Peak level 100.0 %
     Extraction speed 3.3 X
     Track quality 99.9 %
     Test CRC E0CAD3FA
     Copy CRC E0CAD3FA
     Accurately ripped (confidence 2)  [FA0E1721]  (AR v2)
     Copy OK
Track  5
     Filename C:\working group\05 - Symphony No. 5 in B flat major, D. 485- Allegro.wav
     Pre-gap length  0:00:12.02
     Peak level 81.6 %
     Extraction speed 3.4 X
     Track quality 100.0 %
     Test CRC 9093C176
     Copy CRC 9093C176
     Accurately ripped (confidence 2)  [D5BCD388]  (AR v2)
     Copy OK
Track  6
     Filename C:\working group\06 - Symphony No. 5 in B flat major, D. 485- Andante con moto.wav
     Pre-gap length  0:00:03.33
     Peak level 37.7 %
     Extraction speed 3.5 X
     Track quality 100.0 %
     Test CRC 455ADA8D
     Copy CRC 455ADA8D
     Accurately ripped (confidence 2)  [084640F0]  (AR v2)
     Copy OK
Track  7
     Filename C:\working group\07 - Symphony No. 5 in B flat major, D. 485- Menuetto & Trio, Allegro molto.wav
     Pre-gap length  0:00:02.22
     Peak level 55.5 %
     Extraction speed 3.3 X
     Track quality 100.0 %
     Test CRC 805BAD94
     Copy CRC 805BAD94
     Accurately ripped (confidence 2)  [6C42F13B]  (AR v2)
     Copy OK
Track  8
     Filename C:\working group\08 - Symphony No. 5 in B flat major, D. 485- Allegro vivace.wav
     Pre-gap length  0:00:02.16
     Peak level 73.6 %
     Extraction speed 3.3 X
     Track quality 100.0 %
     Test CRC 5028DA26
     Copy CRC 5028DA26
     Accurately ripped (confidence 2)  [D4AF863E]  (AR v2)
     Copy OK
All tracks accurately ripped
No errors occurred
End of status report
==== Log checksum 56C70CB5581D6378AB49AB11402EE23A1FC1E900AFE2C2903F5451515E144C6E ====

-

CUE

REM GENRE Classical
REM DATE 1983
REM DISCID 670E1408
REM COMMENT "ExactAudioCopy v1.0b3"
PERFORMER "Neville Marriner, Academy of St. Martin-in-the-Fields"
TITLE "The 10 Symphonies - d3"
FILE "01 - Symphony No. 4 in C minor (''Tragic''), D. 417- Adagio molto , Allegro vivace.flac" WAVE
  TRACK 01 AUDIO
    TITLE "Symphony No. 4 in C minor ('Tragic'), D. 417: Adagio molto / Allegro vivace"
    PERFORMER "Neville Marriner, Academy of St. Martin-in-the-Fields"
    INDEX 01 00:00:00
FILE "02 - Symphony No. 4 in C minor (''Tragic''), D. 417- Andante.flac" WAVE
  TRACK 02 AUDIO
    TITLE "Symphony No. 4 in C minor ('Tragic'), D. 417: Andante"
    PERFORMER "Neville Marriner, Academy of St. Martin-in-the-Fields"
    INDEX 01 00:00:00
FILE "03 - Symphony No. 4 in C minor (''Tragic''), D. 417- Menuetto & Trio, Allegro vivace.flac" WAVE
  TRACK 03 AUDIO
    TITLE "Symphony No. 4 in C minor ('Tragic'), D. 417: Menuetto & Trio, Allegro vivace"
    PERFORMER "Neville Marriner, Academy of St. Martin-in-the-Fields"
    INDEX 01 00:00:00
FILE "04 - Symphony No. 4 in C minor (''Tragic''), D. 417- Allegro.flac" WAVE
  TRACK 04 AUDIO
    TITLE "Symphony No. 4 in C minor ('Tragic'), D. 417: Allegro"
    PERFORMER "Neville Marriner, Academy of St. Martin-in-the-Fields"
    INDEX 01 00:00:00
FILE "05 - Symphony No. 5 in B flat major, D. 485- Allegro.flac" WAVE
  TRACK 05 AUDIO
    TITLE "Symphony No. 5 in B flat major, D. 485: Allegro"
    PERFORMER "Neville Marriner, Academy of St. Martin-in-the-Fields"
    INDEX 01 00:00:00
FILE "06 - Symphony No. 5 in B flat major, D. 485- Andante con moto.flac" WAVE
  TRACK 06 AUDIO
    TITLE "Symphony No. 5 in B flat major, D. 485: Andante con moto"
    PERFORMER "Neville Marriner, Academy of St. Martin-in-the-Fields"
    INDEX 01 00:00:00
FILE "07 - Symphony No. 5 in B flat major, D. 485- Menuetto & Trio, Allegro molto.flac" WAVE
  TRACK 07 AUDIO
    TITLE "Symphony No. 5 in B flat major, D. 485: Menuetto & Trio, Allegro molto"
    PERFORMER "Neville Marriner, Academy of St. Martin-in-the-Fields"
    INDEX 01 00:00:00
FILE "08 - Symphony No. 5 in B flat major, D. 485- Allegro vivace.flac" WAVE
  TRACK 08 AUDIO
    TITLE "Symphony No. 5 in B flat major, D. 485: Allegro vivace"
    PERFORMER "Neville Marriner, Academy of St. Martin-in-the-Fields"
    INDEX 01 00:00:00
-CD 4 – 00h57'51"
Symphony № 8 h-moll D 759 «Unvollendete»
01. I. Allegro moderato [15'02"]
02. II. Andante con moto [11'14"]
03. III. Scherzo – Allegro [06'35"]
04. IV. Allegro molto moderato [07'14"]
Symphonic Fragments D-Dur D 708a
05. I. Allegro vivace [02'55"]
06. II. Andante con moto [03'28"]
07. III. Scherzo – Allegro vivace [08'13"]
08. IV. Allegro vivace – Presto [03'10"]-

EAC log

Exact Audio Copy V1.0 beta 3 from 29. August 2011
EAC extraction logfile from 11. March 2012, 12:45
Neville Marriner, Academy of St. Martin-in-the-Fields / The 10 Symphonies - d4
Used drive  : TOSHIBA DVD-ROM SD-R2512   Adapter: 1  ID: 0
Read mode               : Secure
Utilize accurate stream : Yes
Defeat audio cache      : Yes
Make use of C2 pointers : No
Read offset correction                      : 116
Overread into Lead-In and Lead-Out          : No
Fill up missing offset samples with silence : Yes
Delete leading and trailing silent blocks   : No
Null samples used in CRC calculations       : Yes
Used interface                              : Native Win32 interface for Win NT & 2000
Gap handling                                : Appended to previous track
Used output format              : User Defined Encoder
Selected bitrate                : 1024 kBit/s
Quality                         : High
Add ID3 tag                     : No
Command line compressor         : C:\Program Files\Exact Audio Copy\FLAC\flac.exe
Additional command line options : -8 -V -T "ARTIST=%artist%" -T "TITLE=%title%" -T "ALBUM=%albumtitle%" -T "DATE=%year%" -T "TRACKNUMBER=%tracknr%" -T "GENRE=%genre%" -T "PERFORMER=%albuminterpret%" -T "COMPOSER=%composer%" %haslyrics%--tag-from-file=LYRICS="%lyricsfile%"%haslyrics% -T "ALBUMARTIST=%albumartist%" -T "DISCNUMBER=%cdnumber%" -T "TOTALDISCS=%totalcds%" -T "TOTALTRACKS=%numtracks%" -T "COMMENT=%comment%" %source% -o %dest%
TOC of the extracted CD
     Track |   Start  |  Length  | Start sector | End sector
    ---------------------------------------------------------
        1  |  0:00.33 | 15:02.00 |        33    |    67682
        2  | 15:02.33 | 11:14.00 |     67683    |   118232
        3  | 26:16.33 |  6:35.00 |    118233    |   147857
        4  | 32:51.33 |  7:14.00 |    147858    |   180407
        5  | 40:05.33 |  2:55.00 |    180408    |   193532
        6  | 43:00.33 |  3:28.00 |    193533    |   209132
        7  | 46:28.33 |  8:13.00 |    209133    |   246107
        8  | 54:41.33 |  3:10.00 |    246108    |   260357
Track  1
     Filename C:\working group\01 - Symphony No. 8 in B minor, D. 759 - Allegro moderato.wav
     Pre-gap length  0:00:02.44
     Peak level 74.7 %
     Extraction speed 2.9 X
     Track quality 100.0 %
     Test CRC 2323B956
     Copy CRC 2323B956
     Accurately ripped (confidence 8)  [9DCEBE2C]  (AR v1)
     Copy OK
Track  2
     Filename C:\working group\02 - Symphony No. 8 in B minor, D. 759 - Andante con moto.wav
     Pre-gap length  0:00:02.00
     Peak level 76.0 %
     Extraction speed 3.5 X
     Track quality 100.0 %
     Test CRC 3A9E0488
     Copy CRC 3A9E0488
     Accurately ripped (confidence 8)  [950F5022]  (AR v1)
     Copy OK
Track  3
     Filename C:\working group\03 - Symphony No. 8 in B minor, D. 759 - Scherzo (Allegro).wav
     Pre-gap length  0:00:02.00
     Peak level 68.4 %
     Extraction speed 3.4 X
     Track quality 100.0 %
     Test CRC 1C5EFD2D
     Copy CRC 1C5EFD2D
     Accurately ripped (confidence 8)  [C58B4722]  (AR v1)
     Copy OK
Track  4
     Filename C:\working group\04 - Symphony No. 8 in B minor, D. 759 - Allegro molto moderato.wav
     Pre-gap length  0:00:02.00
     Peak level 96.0 %
     Extraction speed 3.4 X
     Track quality 100.0 %
     Test CRC 30FB4398
     Copy CRC 30FB4398
     Accurately ripped (confidence 8)  [700EDA60]  (AR v1)
     Copy OK
Track  5
     Filename C:\working group\05 - Symphonic Fragments in D, D. 708A - (Allegro vivace).wav
     Pre-gap length  0:00:07.00
     Peak level 100.0 %
     Extraction speed 3.1 X
     Track quality 100.0 %
     Test CRC F358D336
     Copy CRC F358D336
     Accurately ripped (confidence 8)  [1AB56894]  (AR v1)
     Copy OK
Track  6
     Filename C:\working group\06 - Symphonic Fragments in D, D. 708A - (Andante con moto).wav
     Pre-gap length  0:00:03.00
     Peak level 26.9 %
     Extraction speed 3.1 X
     Track quality 100.0 %
     Test CRC B589FD7E
     Copy CRC B589FD7E
     Accurately ripped (confidence 8)  [96F1BEF9]  (AR v1)
     Copy OK
Track  7
     Filename C:\working group\07 - Symphonic Fragments in D, D. 708A - (Scherzo. Allegro vivace).wav
     Pre-gap length  0:00:03.00
     Peak level 75.8 %
     Extraction speed 3.2 X
     Track quality 99.9 %
     Test CRC DE16D170
     Copy CRC DE16D170
     Accurately ripped (confidence 9)  [C004495B]  (AR v1)
     Copy OK
Track  8
     Filename C:\working group\08 - Symphonic Fragments in D, D. 708A - (Allegro vivace)(Presto).wav
     Pre-gap length  0:00:02.00
     Peak level 43.0 %
     Extraction speed 3.1 X
     Track quality 100.0 %
     Test CRC 4C73DDA1
     Copy CRC 4C73DDA1
     Accurately ripped (confidence 9)  [8A2C6861]  (AR v1)
     Copy OK
All tracks accurately ripped
No errors occurred
End of status report
==== Log checksum D1C24ADB62520C52557C14E2B1DDCF06DCB62925773A1D8482D2AE979AE2A12E ====

-

CUE

REM GENRE Symphony
REM DATE 1984
REM DISCID 780D8F08
REM COMMENT "ExactAudioCopy v1.0b3"
PERFORMER "Neville Marriner, Academy of St. Martin-in-the-Fields"
TITLE "The 10 Symphonies - d4"
FILE "01 - Symphony No. 8 in B minor, D. 759 - Allegro moderato.flac" WAVE
  TRACK 01 AUDIO
    TITLE "Symphony No. 8 in B minor, D. 759 - Allegro moderato"
    PERFORMER "Neville Marriner, Academy of St. Martin-in-the-Fields"
    INDEX 01 00:00:00
FILE "02 - Symphony No. 8 in B minor, D. 759 - Andante con moto.flac" WAVE
  TRACK 02 AUDIO
    TITLE "Symphony No. 8 in B minor, D. 759 - Andante con moto"
    PERFORMER "Neville Marriner, Academy of St. Martin-in-the-Fields"
    INDEX 01 00:00:00
FILE "03 - Symphony No. 8 in B minor, D. 759 - Scherzo (Allegro).flac" WAVE
  TRACK 03 AUDIO
    TITLE "Symphony No. 8 in B minor, D. 759 - Scherzo (Allegro)"
    PERFORMER "Neville Marriner, Academy of St. Martin-in-the-Fields"
    INDEX 01 00:00:00
FILE "04 - Symphony No. 8 in B minor, D. 759 - Allegro molto moderato.flac" WAVE
  TRACK 04 AUDIO
    TITLE "Symphony No. 8 in B minor, D. 759 - Allegro molto moderato"
    PERFORMER "Neville Marriner, Academy of St. Martin-in-the-Fields"
    INDEX 01 00:00:00
FILE "05 - Symphonic Fragments in D, D. 708A - (Allegro vivace).flac" WAVE
  TRACK 05 AUDIO
    TITLE "Symphonic Fragments in D, D. 708A - (Allegro vivace)"
    PERFORMER "Neville Marriner, Academy of St. Martin-in-the-Fields"
    INDEX 01 00:00:00
FILE "06 - Symphonic Fragments in D, D. 708A - (Andante con moto).flac" WAVE
  TRACK 06 AUDIO
    TITLE "Symphonic Fragments in D, D. 708A - (Andante con moto)"
    PERFORMER "Neville Marriner, Academy of St. Martin-in-the-Fields"
    INDEX 01 00:00:00
FILE "07 - Symphonic Fragments in D, D. 708A - (Scherzo. Allegro vivace).flac" WAVE
  TRACK 07 AUDIO
    TITLE "Symphonic Fragments in D, D. 708A - (Scherzo. Allegro vivace)"
    PERFORMER "Neville Marriner, Academy of St. Martin-in-the-Fields"
    INDEX 01 00:00:00
FILE "08 - Symphonic Fragments in D, D. 708A - (Allegro vivace)(Presto).flac" WAVE
  TRACK 08 AUDIO
    TITLE "Symphonic Fragments in D, D. 708A - (Allegro vivace)(Presto)"
    PERFORMER "Neville Marriner, Academy of St. Martin-in-the-Fields"
    INDEX 01 00:00:00
-CD 5 – 01h05'49"
Symphony № 7 E-Dur D 729
01. I. Adagio – Allegro [11'38"]
02. II. Andante [08'00"]
03. III. Scherzo – Allegro [06'00"]
04. IV. Allegro giusto [12'40"]
Symphony № 10 D-Dur D 936a
05. I. Allegro maestoso [09'00"]
06. II. Andante [10'37"]
07. III. Scherzo – Allegro moderato [07'55"]-

EAC log

Exact Audio Copy V1.0 beta 3 from 29. August 2011
EAC extraction logfile from 11. March 2012, 13:31
Neville Marriner, Academy of St. Martin-in-the-Fields / The 10 Symphonies - d5
Used drive  : TOSHIBA DVD-ROM SD-R2512   Adapter: 1  ID: 0
Read mode               : Secure
Utilize accurate stream : Yes
Defeat audio cache      : Yes
Make use of C2 pointers : No
Read offset correction                      : 116
Overread into Lead-In and Lead-Out          : No
Fill up missing offset samples with silence : Yes
Delete leading and trailing silent blocks   : No
Null samples used in CRC calculations       : Yes
Used interface                              : Native Win32 interface for Win NT & 2000
Gap handling                                : Appended to previous track
Used output format              : User Defined Encoder
Selected bitrate                : 1024 kBit/s
Quality                         : High
Add ID3 tag                     : No
Command line compressor         : C:\Program Files\Exact Audio Copy\FLAC\flac.exe
Additional command line options : -8 -V -T "ARTIST=%artist%" -T "TITLE=%title%" -T "ALBUM=%albumtitle%" -T "DATE=%year%" -T "TRACKNUMBER=%tracknr%" -T "GENRE=%genre%" -T "PERFORMER=%albuminterpret%" -T "COMPOSER=%composer%" %haslyrics%--tag-from-file=LYRICS="%lyricsfile%"%haslyrics% -T "ALBUMARTIST=%albumartist%" -T "DISCNUMBER=%cdnumber%" -T "TOTALDISCS=%totalcds%" -T "TOTALTRACKS=%numtracks%" -T "COMMENT=%comment%" %source% -o %dest%
TOC of the extracted CD
     Track |   Start  |  Length  | Start sector | End sector
    ---------------------------------------------------------
        1  |  0:00.32 | 11:37.50 |        32    |    52356
        2  | 11:38.07 |  7:59.38 |     52357    |    88319
        3  | 19:37.45 |  6:00.25 |     88320    |   115344
        4  | 25:37.70 | 12:39.50 |    115345    |   172319
        5  | 38:17.45 |  9:00.37 |    172320    |   212856
        6  | 47:18.07 | 10:37.00 |    212857    |   260631
        7  | 57:55.07 |  7:54.38 |    260632    |   296219
Track  1
     Filename C:\working group\01 - Symphony 7 (E) D.729 (realized by Brian Newbould)- 1. Adagio-Allegro.wav
     Pre-gap length  0:00:02.42
     Peak level 95.4 %
     Extraction speed 2.7 X
     Track quality 100.0 %
     Test CRC FF6A2ECF
     Copy CRC FF6A2ECF
     Accurately ripped (confidence 5)  [B8332ED2]  (AR v1)
     Copy OK
Track  2
     Filename C:\working group\02 - Andante.wav
     Pre-gap length  0:00:02.49
     Peak level 36.2 %
     Extraction speed 3.1 X
     Track quality 100.0 %
     Test CRC 36752D8E
     Copy CRC 36752D8E
     Accurately ripped (confidence 6)  [F10AB764]  (AR v1)
     Copy OK
Track  3
     Filename C:\working group\03 - Scherzo (Allegro).wav
     Pre-gap length  0:00:03.50
     Peak level 80.0 %
     Extraction speed 3.4 X
     Track quality 100.0 %
     Test CRC 0096B99A
     Copy CRC 0096B99A
     Accurately ripped (confidence 6)  [358E26DA]  (AR v1)
     Copy OK
Track  4
     Filename C:\working group\04 - Allegro giusto.wav
     Pre-gap length  0:00:00.33
     Peak level 89.0 %
     Extraction speed 3.6 X
     Track quality 100.0 %
     Test CRC 0977900B
     Copy CRC 0977900B
     Accurately ripped (confidence 6)  [6603CC0B]  (AR v1)
     Copy OK
Track  5
     Filename C:\working group\05 - Symphony 10 (D) D.936A (realized by Brian Newbould)- 1. (Allegro maestoso).wav
     Pre-gap length  0:00:10.00
     Peak level 96.6 %
     Extraction speed 3.3 X
     Track quality 99.9 %
     Test CRC 34B41501
     Copy CRC 34B41501
     Accurately ripped (confidence 6)  [5C5397DF]  (AR v1)
     Copy OK
Track  6
     Filename C:\working group\06 - Andante.wav
     Pre-gap length  0:00:00.49
     Peak level 81.0 %
     Extraction speed 3.6 X
     Track quality 100.0 %
     Test CRC B5A6EA3F
     Copy CRC B5A6EA3F
     Accurately ripped (confidence 6)  [2750CAC6]  (AR v1)
     Copy OK
Track  7
     Filename C:\working group\07 - Scherzo (Allegro moderato).wav
     Peak level 89.1 %
     Extraction speed 3.5 X
     Track quality 100.0 %
     Test CRC 940F167D
     Copy CRC 940F167D
     Accurately ripped (confidence 6)  [85F73284]  (AR v1)
     Copy OK
All tracks accurately ripped
No errors occurred
End of status report
==== Log checksum A143698BD12011113D6D89D14543212E057C85A7352C69E248CA67B093DF8320 ====

-

CUE

REM GENRE Classical
REM DATE 1984
REM DISCID 660F6D07
REM COMMENT "ExactAudioCopy v1.0b3"
PERFORMER "Neville Marriner, Academy of St. Martin-in-the-Fields"
TITLE "The 10 Symphonies - d5"
FILE "01 - Symphony 7 (E) D.729 (realized by Brian Newbould)- 1. Adagio-Allegro.flac" WAVE
  TRACK 01 AUDIO
    TITLE "Symphony 7 (E) D.729 (realized by Brian Newbould): 1. Adagio-Allegro"
    PERFORMER "Neville Marriner, Academy of St. Martin-in-the-Fields"
    INDEX 01 00:00:00
FILE "02 - Andante.flac" WAVE
  TRACK 02 AUDIO
    TITLE "Andante"
    PERFORMER "Neville Marriner, Academy of St. Martin-in-the-Fields"
    INDEX 01 00:00:00
FILE "03 - Scherzo (Allegro).flac" WAVE
  TRACK 03 AUDIO
    TITLE "Scherzo (Allegro)"
    PERFORMER "Neville Marriner, Academy of St. Martin-in-the-Fields"
    INDEX 01 00:00:00
FILE "04 - Allegro giusto.flac" WAVE
  TRACK 04 AUDIO
    TITLE "Allegro giusto"
    PERFORMER "Neville Marriner, Academy of St. Martin-in-the-Fields"
    INDEX 01 00:00:00
FILE "05 - Symphony 10 (D) D.936A (realized by Brian Newbould)- 1. (Allegro maestoso).flac" WAVE
  TRACK 05 AUDIO
    TITLE "Symphony 10 (D) D.936A (realized by Brian Newbould): 1. (Allegro maestoso)"
    PERFORMER "Neville Marriner, Academy of St. Martin-in-the-Fields"
    INDEX 01 00:00:00
FILE "06 - Andante.flac" WAVE
  TRACK 06 AUDIO
    TITLE "Andante"
    PERFORMER "Neville Marriner, Academy of St. Martin-in-the-Fields"
    INDEX 01 00:00:00
FILE "07 - Scherzo (Allegro moderato).flac" WAVE
  TRACK 07 AUDIO
    TITLE "Scherzo (Allegro moderato)"
    PERFORMER "Neville Marriner, Academy of St. Martin-in-the-Fields"
    INDEX 01 00:00:00
-CD 6 – 01h09'53"
Symphony № 9 C-Dur D 944 «Grosse»
01. I. Andante – Allegro ma non troppo [16'04"]
02. II. Andante con moto [15'42"]
03. III. Scherzo – Allegro vivace [14'35"]
04. IV. Allegro vivace [15'52"]
Symphonic Fragments D-Dur D 615
05. I. Adagio [04'19"]
06. II. Allegretto [03'21"]-

EAC log

Exact Audio Copy V1.0 beta 3 from 29. August 2011
EAC extraction logfile from 11. March 2012, 14:24
Neville Marriner, Academy of St. Martin-in-the-Fields / The 10 Symphonies - d6
Used drive  : TOSHIBA DVD-ROM SD-R2512   Adapter: 1  ID: 0
Read mode               : Secure
Utilize accurate stream : Yes
Defeat audio cache      : Yes
Make use of C2 pointers : No
Read offset correction                      : 116
Overread into Lead-In and Lead-Out          : No
Fill up missing offset samples with silence : Yes
Delete leading and trailing silent blocks   : No
Null samples used in CRC calculations       : Yes
Used interface                              : Native Win32 interface for Win NT & 2000
Gap handling                                : Appended to previous track
Used output format              : User Defined Encoder
Selected bitrate                : 1024 kBit/s
Quality                         : High
Add ID3 tag                     : No
Command line compressor         : C:\Program Files\Exact Audio Copy\FLAC\flac.exe
Additional command line options : -8 -V -T "ARTIST=%artist%" -T "TITLE=%title%" -T "ALBUM=%albumtitle%" -T "DATE=%year%" -T "TRACKNUMBER=%tracknr%" -T "GENRE=%genre%" -T "PERFORMER=%albuminterpret%" -T "COMPOSER=%composer%" %haslyrics%--tag-from-file=LYRICS="%lyricsfile%"%haslyrics% -T "ALBUMARTIST=%albumartist%" -T "DISCNUMBER=%cdnumber%" -T "TOTALDISCS=%totalcds%" -T "TOTALTRACKS=%numtracks%" -T "COMMENT=%comment%" %source% -o %dest%
TOC of the extracted CD
     Track |   Start  |  Length  | Start sector | End sector
    ---------------------------------------------------------
        1  |  0:00.32 | 16:04.25 |        32    |    72356
        2  | 16:04.57 | 15:41.38 |     72357    |   142969
        3  | 31:46.20 | 14:35.10 |    142970    |   208604
        4  | 46:21.30 | 15:51.65 |    208605    |   279994
        5  | 62:13.20 |  4:19.37 |    279995    |   299456
        6  | 66:32.57 |  3:20.38 |    299457    |   314494
Track  1
     Filename C:\working group\01 - Symphony No. 9 in C Major, D. 994 'The Great' - Andante allegro.wav
     Pre-gap length  0:00:02.42
     Peak level 95.5 %
     Extraction speed 2.8 X
     Track quality 100.0 %
     Test CRC 081C5FE2
     Copy CRC 081C5FE2
     Accurately ripped (confidence 9)  [DD1EF239]  (AR v1)
     Copy OK
Track  2
     Filename C:\working group\02 - Symphony No. 9 in C Major, D. 994 'The Great' - Andante con moto.wav
     Pre-gap length  0:00:03.49
     Peak level 97.7 %
     Extraction speed 3.5 X
     Track quality 100.0 %
     Test CRC 94999FF5
     Copy CRC 94999FF5
     Accurately ripped (confidence 9)  [069C39BA]  (AR v1)
     Copy OK
Track  3
     Filename C:\working group\03 - Symphony No. 9 in C Major, D. 994 'The Great' - Scherzo.wav
     Pre-gap length  0:00:02.00
     Peak level 93.2 %
     Extraction speed 3.5 X
     Track quality 99.9 %
     Test CRC 5F310232
     Copy CRC 5F310232
     Accurately ripped (confidence 9)  [0631A655]  (AR v1)
     Copy OK
Track  4
     Filename C:\working group\04 - Symphony No. 9 in C Major, D. 994 'The Great' - AllegroVivace.wav
     Peak level 99.6 %
     Extraction speed 3.6 X
     Track quality 100.0 %
     Test CRC 1996DCBE
     Copy CRC 1996DCBE
     Accurately ripped (confidence 8)  [1E1705D5]  (AR v1)
     Copy OK
Track  5
     Filename C:\working group\05 - Symphonic Fragments in D, D. 615 - Adagio.wav
     Pre-gap length  0:00:11.00
     Peak level 69.8 %
     Extraction speed 3.3 X
     Track quality 100.0 %
     Test CRC 41016707
     Copy CRC 41016707
     Accurately ripped (confidence 8)  [BA7647EE]  (AR v1)
     Copy OK
Track  6
     Filename C:\working group\06 - Symphonic Fragments in D, D. 615 - Alegretto.wav
     Pre-gap length  0:00:01.00
     Peak level 79.2 %
     Extraction speed 2.7 X
     Track quality 99.9 %
     Test CRC A881894E
     Copy CRC A881894E
     Accurately ripped (confidence 8)  [A2DF23D7]  (AR v1)
     Copy OK
All tracks accurately ripped
No errors occurred
End of status report
==== Log checksum 09BF38B423371AF884F7C5275F0CFB7B21E7718EC28344F70579B6535745F091 ====

-

CUE

REM GENRE Symphony
REM DATE 1984
REM DISCID 68106106
REM COMMENT "ExactAudioCopy v1.0b3"
PERFORMER "Neville Marriner, Academy of St. Martin-in-the-Fields"
TITLE "The 10 Symphonies - d6"
FILE "01 - Symphony No. 9 in C Major, D. 994 'The Great' - Andante allegro.flac" WAVE
  TRACK 01 AUDIO
    TITLE "Symphony No. 9 in C Major, D. 994 'The Great' - Andante allegro"
    PERFORMER "Neville Marriner, Academy of St. Martin-in-the-Fields"
    INDEX 01 00:00:00
FILE "02 - Symphony No. 9 in C Major, D. 994 'The Great' - Andante con moto.flac" WAVE
  TRACK 02 AUDIO
    TITLE "Symphony No. 9 in C Major, D. 994 'The Great' - Andante con moto"
    PERFORMER "Neville Marriner, Academy of St. Martin-in-the-Fields"
    INDEX 01 00:00:00
FILE "03 - Symphony No. 9 in C Major, D. 994 'The Great' - Scherzo.flac" WAVE
  TRACK 03 AUDIO
    TITLE "Symphony No. 9 in C Major, D. 994 'The Great' - Scherzo"
    PERFORMER "Neville Marriner, Academy of St. Martin-in-the-Fields"
    INDEX 01 00:00:00
FILE "04 - Symphony No. 9 in C Major, D. 994 'The Great' - AllegroVivace.flac" WAVE
  TRACK 04 AUDIO
    TITLE "Symphony No. 9 in C Major, D. 994 'The Great' - AllegroVivace"
    PERFORMER "Neville Marriner, Academy of St. Martin-in-the-Fields"
    INDEX 01 00:00:00
FILE "05 - Symphonic Fragments in D, D. 615 - Adagio.flac" WAVE
  TRACK 05 AUDIO
    TITLE "Symphonic Fragments in D, D. 615 - Adagio"
    PERFORMER "Neville Marriner, Academy of St. Martin-in-the-Fields"
    INDEX 01 00:00:00
FILE "06 - Symphonic Fragments in D, D. 615 - Alegretto.flac" WAVE
  TRACK 06 AUDIO
    TITLE "Symphonic Fragments in D, D. 615 - Alegretto"
    PERFORMER "Neville Marriner, Academy of St. Martin-in-the-Fields"
    INDEX 01 00:00:00

-
-



Показать сообщения:    

Текущее время: 10-Дек 00:20

Часовой пояс: UTC + 3


Вы не можете начинать темы
Вы не можете отвечать на сообщения
Вы не можете редактировать свои сообщения
Вы не можете удалять свои сообщения
Вы не можете голосовать в опросах
Вы не можете прикреплять файлы к сообщениям
Вы не можете скачивать файлы