(Classical, ballet) Malcolm Arnold - Suite from ‘Homage to the Queen‘ и ‘Sweeney Todd’ - Rinaldo and Armida - Electra (BBC Philharmonic, Rumon Gamba) - 2009, FLAC (image+.cue) lossless


 

[Цитировать]

Malcolm Arnold - Ballet Music - BBC Philharmonic, Rumon Gamba
Жанр: Classical
Страна-производитель диска: UK
Год издания диска: 2009
Издатель (лейбл): Chandos Records
Номер по каталогу: CHAN 10550
Дата записи: 2008
Аудиокодек: FLAC
Тип рипа: image+.cue
Битрейт аудио: lossless
Продолжительность: 76:14
Источник: собственный рип
Наличие сканов в содержимом раздачи: да
Треклист:
Malcolm Arnold (1921–2006)
[1]-[6] Suite from ‘Homage to the Queen’, Op. 42 (1953)
[7]-[12] Rinaldo and Armida, Op.49 (1954)
Dance-drama in One Act
[13]-[19] Concert Suite from ‘Sweeney Todd’, Op. 68a (1959)
[20]-[22] Electra, Op. 79 (1963)
Ballet in One Act
Исполнители:
BBC Philharmonic
Rumon Gamba

Лог создания рипа

Exact Audio Copy V1.1 from 23. June 2015
EAC extraction logfile from 2. August 2015, 14:36
BBC Philharmonic, Rumon Gamba / Arnold - Ballet Music
Used drive : HL-DT-STDVDRAM GU70N Adapter: 1 ID: 0
Read mode : SecureUtilize accurate stream : YesDefeat audio cache : YesMake use of C2 pointers : No
Read offset correction : 48Overread into Lead-In and Lead-Out : NoFill up missing offset samples with silence : YesDelete leading and trailing silent blocks : NoNull samples used in CRC calculations : YesUsed interface : Native Win32 interface for Win NT & 2000
Used output format : User Defined EncoderSelected bitrate : 128 kBit/sQuality : HighAdd ID3 tag : NoCommand line compressor : C:\Program Files (x86)\Exact Audio Copy\Flac\flac.exeAdditional command line options : -V -8 -T "Date=%year%" -T "Genre=%genre%" %source%
TOC of the extracted CD
Track | Start | Length | Start sector | End sector --------------------------------------------------------- 1 | 0:00.00 | 4:35.18 | 0 | 20642 2 | 4:35.18 | 1:09.65 | 20643 | 25882 3 | 5:45.08 | 5:17.10 | 25883 | 49667 4 | 11:02.18 | 1:03.00 | 49668 | 54392 5 | 12:05.18 | 5:12.45 | 54393 | 77837 6 | 17:17.63 | 2:35.50 | 77838 | 89512 7 | 19:53.38 | 3:20.35 | 89513 | 104547 8 | 23:13.73 | 4:22.20 | 104548 | 124217 9 | 27:36.18 | 2:04.59 | 124218 | 133576 10 | 29:41.02 | 3:54.36 | 133577 | 151162 11 | 33:35.38 | 4:12.55 | 151163 | 170117 12 | 37:48.18 | 3:10.55 | 170118 | 184422 13 | 40:58.73 | 3:17.50 | 184423 | 199247 14 | 44:16.48 | 1:33.65 | 199248 | 206287 15 | 45:50.38 | 1:58.18 | 206288 | 215155 16 | 47:48.56 | 2:11.67 | 215156 | 225047 17 | 50:00.48 | 1:37.70 | 225048 | 232392 18 | 51:38.43 | 5:39.45 | 232393 | 257862 19 | 57:18.13 | 4:04.70 | 257863 | 276232 20 | 61:23.08 | 4:09.40 | 276233 | 294947 21 | 65:32.48 | 6:30.60 | 294948 | 324257 22 | 72:03.33 | 4:10.42 | 324258 | 343049
Range status and errors
Selected range
Filename C:\temp\Arnold - Ballet Music\Arnold - Ballet Music.wav
Peak level 98.1 % Extraction speed 2.3 X Range quality 99.9 % Test CRC 751BA7AF Copy CRC 751BA7AF Copy OK
No errors occurred
AccurateRip summary
Track 1 accurately ripped (confidence 3) [ACF770CA] (AR v2)Track 2 accurately ripped (confidence 4) [28262E7C] (AR v2)Track 3 accurately ripped (confidence 4) [86C284A8] (AR v2)Track 4 accurately ripped (confidence 4) [BA495085] (AR v2)Track 5 accurately ripped (confidence 4) [8D7E520C] (AR v2)Track 6 accurately ripped (confidence 4) [A8CF6C3F] (AR v2)Track 7 accurately ripped (confidence 4) [6A1D3C93] (AR v2)Track 8 accurately ripped (confidence 4) [7CEB747A] (AR v2)Track 9 accurately ripped (confidence 4) [255EC303] (AR v2)Track 10 accurately ripped (confidence 4) [3B595102] (AR v2)Track 11 accurately ripped (confidence 4) [3F1DA0A1] (AR v2)Track 12 accurately ripped (confidence 4) [74A8113E] (AR v2)Track 13 accurately ripped (confidence 4) [26C9D114] (AR v2)Track 14 accurately ripped (confidence 4) [805CEE50] (AR v2)Track 15 accurately ripped (confidence 4) [6028FE3A] (AR v2)Track 16 accurately ripped (confidence 4) [E8F92B7D] (AR v2)Track 17 accurately ripped (confidence 4) [6544B2B9] (AR v2)Track 18 accurately ripped (confidence 4) [08174742] (AR v2)Track 19 accurately ripped (confidence 4) [14B79370] (AR v2)Track 20 accurately ripped (confidence 4) [AA34F572] (AR v2)Track 21 accurately ripped (confidence 4) [BC4265B5] (AR v2)Track 22 accurately ripped (confidence 4) [1AE64F62] (AR v2)
All tracks accurately ripped
End of status report
==== Log checksum A9E2797ABF9B9FFAFF755C3A4174B872D1762540DA34874FC94AB860BC894AF5 ====



Показать сообщения:    

Текущее время: 03-Дек 16:43

Часовой пояс: UTC + 3


Вы не можете начинать темы
Вы не можете отвечать на сообщения
Вы не можете редактировать свои сообщения
Вы не можете удалять свои сообщения
Вы не можете голосовать в опросах
Вы не можете прикреплять файлы к сообщениям
Вы не можете скачивать файлы