(Classical) Александр Мосолов - Завод, Концерт для фортепиано с оркестром №1, Соната для фортепиано №1, Легенда, 4 газетных объявления (Steffen Schleiermacher/Johannes Kalitzke) - 2015, FLAC (image+.cue) lossless


 

[Цитировать]

Александр Мосолов - Завод, Концерт для фортепиано с оркестром №1
Жанр: Classical
Страна-производитель диска: Austria
Год издания диска: 2015
Издатель (лейбл): Capriccio
Номер по каталогу: C5241
Дата записи: II.2014
Аудиокодек: FLAC
Тип рипа: image+.cue
Битрейт аудио: lossless
Продолжительность: 55'11"
Источник: собственный рип
Наличие сканов в содержимом раздачи: да
Треклист:
1. Завод. Музыка машин, симфонический эпизод из балета "Сталь", Op.19
Концерт No.1 для фортепиано с малым оркестром, Op.14
2. I. Andante lugubre (Lento)
3. II. Tema con Concertini (Lento sostenuto)
4. III. Allegro. Molto marcato
5. Прибытие трактора в колхоз
6. Легенда для виолончели и фортепиано, Op.5
7. Соната No.1 для фортепиано, Op.3
8. Четыре газетных объявления (слова из газеты "Известия ВЦИК"), Op.21
Исполнители:
Steffen Schleiermacher, piano
Ringela Riemke, cello
Наталья Пшеничникова, soprano
Rundfunk-Sinfonieorchester Berlin
Johannes Kalitzke
-

Лог создания рипа

Exact Audio Copy V1.0 beta 4 from 7. December 2014
EAC extraction logfile from 18. August 2015, 20:17
Alexander Mosolov / Iron Foundry & Piano Concerto No.1
Used drive : TSSTcorpDVDWBD TS-LB23A Adapter: 1 ID: 0
Read mode : SecureUtilize accurate stream : YesDefeat audio cache : YesMake use of C2 pointers : No
Read offset correction : 6Overread into Lead-In and Lead-Out : NoFill up missing offset samples with silence : YesDelete leading and trailing silent blocks : NoNull samples used in CRC calculations : YesUsed interface : Native Win32 interface for Win NT & 2000
Used output format : User Defined EncoderSelected bitrate : 128 kBit/sQuality : HighAdd ID3 tag : YesCommand line compressor : C:\Program Files (x86)\Exact Audio Copy\Flac\flac.exeAdditional command line options : -T "COMMENT=Ripped by GFox" -V -8 %source%
TOC of the extracted CD
Track | Start | Length | Start sector | End sector --------------------------------------------------------- 1 | 0:00.00 | 3:22.69 | 0 | 15218 2 | 3:22.69 | 9:00.29 | 15219 | 55747 3 | 12:23.23 | 11:22.11 | 55748 | 106908 4 | 23:45.34 | 4:27.49 | 106909 | 126982 5 | 28:13.08 | 3:58.20 | 126983 | 144852 6 | 32:11.28 | 6:19.43 | 144853 | 173320 7 | 38:30.71 | 12:26.49 | 173321 | 229319 8 | 50:57.45 | 4:14.02 | 229320 | 248371
Range status and errors
Selected range
Filename D:\Downloads\Alexander Mosolov - Iron Foundry & Piano Concerto No.1.wav
Peak level 100.0 % Extraction speed 1.6 X Range quality 100.0 % Test CRC E3DB8F39 Copy CRC E3DB8F39 Copy OK
No errors occurred
AccurateRip summary
Track 1 not present in databaseTrack 2 not present in databaseTrack 3 not present in databaseTrack 4 not present in databaseTrack 5 not present in databaseTrack 6 not present in databaseTrack 7 not present in databaseTrack 8 not present in database
None of the tracks are present in the AccurateRip database
End of status report
==== Log checksum 530DEE35B45649015921826C349A87E903F592F5BE903C492E0F0A3677CEC277 ====
-Доп. информация: Блестящий образчик советского музыкального конструктивизма самой романтической эпохи советской музыки в блестящем исполнении признанного авангардного пианиста Штеффана Шляермахера.-



Показать сообщения:    

Текущее время: 03-Дек 12:40

Часовой пояс: UTC + 3


Вы не можете начинать темы
Вы не можете отвечать на сообщения
Вы не можете редактировать свои сообщения
Вы не можете удалять свои сообщения
Вы не можете голосовать в опросах
Вы не можете прикреплять файлы к сообщениям
Вы не можете скачивать файлы