(Orchestral, Soviet) Янис Иванов - Симфонии № 5 & 12 / Janis Ivanovs - Symphonies nos. 5 & 12 (Дмитрий Яблонский, Латвийский Национальный симфонический оркестр/Latvian National Symphony Orchestra) - 1996, FLAC (image+.cue) lossless


 

[Цитировать]

Janis Ivanovs - Symphonies nos. 5 & 12
Жанр: Orchestral
Страна-производитель диска: Germany
Год издания диска: 1996
Издатель (лейбл): Marco Polo
Номер по каталогу: 8.223332
Дата записи: 1995
Аудиокодек: FLAC
Тип рипа: image+.cue
Битрейт аудио: lossless
Продолжительность: 64:54
Источник: скачано с
Наличие сканов в содержимом раздачи: да
Треклист:
Янис Иванов (1906-1983)
Симфония No. 5 C major (1945)
I. Moderato, maestoso - Allegro (12:04)
II. Andante (12:40)
III. Allegro (6:42)
IV. Moderato (10:59)

Symphony No. 12 "Sinfonia Energica" C-dur, 12 tonu skankarta (1967)
посв. 50-летию Октября
I. Moderato - Allegro energico (5:55)
II. Sostenuto con vigore (4:44)
III. Andante non troppo (6:35)
IV. Allegro (5:12)
Исполнители:
Латвийский Национальный симфонический оркестр
Дмитрий Яблонский, дирижёр
Рижская студия звукозаписи, Рига, Латвия, март 1995
Latvian National Symphony Orchestra/Dmitry Yablonsky

Лог создания рипа

Exact Audio Copy V0.99 prebeta 5 from 4. May 2009
EAC extraction logfile from 12. July 2010, 20:22
Ivanovs, Janis LatvianNat'lSymphOrch DmitryYablonsky / IVANOVS: Symphonies Nos. 5 and 12
Used drive : ATAPI DVD A DH16A6S Adapter: 3 ID: 2
Read mode : SecureUtilize accurate stream : YesDefeat audio cache : NoMake use of C2 pointers : No
Read offset correction : 6Overread into Lead-In and Lead-Out : NoFill up missing offset samples with silence : YesDelete leading and trailing silent blocks : NoNull samples used in CRC calculations : NoUsed interface : Native Win32 interface for Win NT & 2000
Used output format : User Defined EncoderSelected bitrate : 768 kBit/sQuality : HighAdd ID3 tag : NoCommand line compressor : C:\Program Files\Exact Audio Copy\FLAC\FLAC.EXEAdditional command line options : -6 -V -T "ARTIST=%a" -T "TITLE=%t" -T "ALBUM=%g" -T "DATE=%y" -T "TRACKNUMBER=%n" -T "GENRE=%m" -T "COMMENT=%e" %s -o %d
TOC of the extracted CD
Track | Start | Length | Start sector | End sector --------------------------------------------------------- 1 | 0:00.00 | 12:04.10 | 0 | 54309 2 | 12:04.10 | 12:40.65 | 54310 | 111374 3 | 24:45.00 | 6:42.02 | 111375 | 141526 4 | 31:27.02 | 10:59.45 | 141527 | 190996 5 | 42:26.47 | 5:55.70 | 190997 | 217691 6 | 48:22.42 | 4:44.20 | 217692 | 239011 7 | 53:06.62 | 6:35.38 | 239012 | 268674 8 | 59:42.25 | 5:12.20 | 268675 | 292094
Range status and errors
Selected range
Filename D:\Ivanovs - Symphony No.5, Symphony No.12 - Yablonsky - MARCO POLO\Ivanovs - Symphony No.5, Symphony No.12 - Yablonsky - MARCO POLO.wav
Peak level 90.1 % Range quality 100.0 % Copy CRC AC2D0D0C Copy OK
No errors occurred
AccurateRip summary
Track 1 cannot be verified as accurate (confidence 1) [5EE594D5], AccurateRip returned [F1705A67]Track 2 cannot be verified as accurate (confidence 1) [884FB159], AccurateRip returned [4EF1C313]Track 3 cannot be verified as accurate (confidence 1) [63CB0F84], AccurateRip returned [B823FA96]Track 4 cannot be verified as accurate (confidence 1) [35CAD7BA], AccurateRip returned [9F500611]Track 5 cannot be verified as accurate (confidence 1) [8682CCC7], AccurateRip returned [B65516DC]Track 6 cannot be verified as accurate (confidence 1) [2FF2C6EC], AccurateRip returned [D8C0A622]Track 7 cannot be verified as accurate (confidence 1) [D598D465], AccurateRip returned [EB30C843]Track 8 cannot be verified as accurate (confidence 1) [E2FC97F8], AccurateRip returned [7E82157B]
No tracks could be verified as accurateYou may have a different pressing from the one(s) in the database
End of status report
Доп. информация: После 4й симфонии (1941), основанной на античном мифе о гибели Атлантиды и запечатлевшей мир накануне катастрофы Второй мировой войны, Янис Иванов долго ничего не сочинял - настолько сильно было потрясение. Лишь в год победы появляется новое произведение - драматичная Пятая симфония (1945). Симфонию исполнили в Москве в мае 1946 года, а Иванова (композитора из ненадёжной Латвии) заметили и похвалили за то, что пишет современно, в духе советских классиков - Мясковского и Прокофьева, но по-своему.
Музыка 5й симфонии навеяна событиями военного времени и оккупации. Суровое повествование первой части предваряется эпиграфом, воплощающим острый протест. Скорбный характер главной темы подчёркивается задумчивыми мелодиями, полными глубокой боли, порой словно бы застывающими в ужасе уничтожения. Во второй части, образы которой перекликаются с музыкой 6й симфонии Прокофьева, на фоне жёстких звучаний развёртывается бесконечная мелодия широкого дыхания. За ней следует более подвижная пасторальная тема. Мощным контрастом взрывается средний эпизод - зловещий образ врага. В третьей части яркое выражение находят жанровые элементы - гротескные едко-саркастические образы соседствуют с элегическим вальсом. Образы смерти и уничтожения не отступают и в финале, однако на этот раз им противостоит тема победы.
В 12й симфонии Иванов продолжил опыты c сериальной техникой. Стоит отметить, что композитор творчески подошёл к додекафонии и тональный центр его симфоний периода авангардных исканий вполне определён, присутствуют и отсылки к неоклассике, к Шостаковичу. Интересна особенность названий и посвящений - Иванов, как и многие советские композиторы, играл по правилам соцреализма, посвятив диссонантную Двенадцатую с подзаголовком "Sinfonia energica" - 50-летию Октября. Как очевидно, язык этого сочинения далёк от советской оптимистичности и официальные музыкальные идеологи были совсем не в восторге от него, но скрытые смыслы искать даже не пытались - автор был профессором консерватории и пропагандировал классику на национальном радио... 12я симфония - отнюдь не иллюстрация коллективного энергичного труда на благо коммунизма, как это следует из названия, а скорей всего - очередной творческий эксперимент, просто игра ритмами и тембрами.



Показать сообщения:    

Текущее время: 10-Дек 13:47

Часовой пояс: UTC + 3


Вы не можете начинать темы
Вы не можете отвечать на сообщения
Вы не можете редактировать свои сообщения
Вы не можете удалять свои сообщения
Вы не можете голосовать в опросах
Вы не можете прикреплять файлы к сообщениям
Вы не можете скачивать файлы