(Classical) Pyotr Tchaikovsky (Петр Чайковский) — Symphonies № 5 & 6 (Op 64 & 74) (Vladimir Verbickij (Вербицкий), Kazushi Ono) — 1995, APE (image+.cue) lossless


 

[Цитировать]

Symphonies № 5 & 6 (Op 64 & 74)-
Жанр: Classical
Страна-производитель диска: Чехия
Годы издания диска: 1995
Издатель (лейбл): Selected Sound Carrier
Номер по каталогу: DCD Bestell Nr.5140
Композитор: Петр Чайковский
Исполнители: Vladimir Verbickij (Slovak Philharmonic Orchestra), Kazushi Ono (Zagreb Philharmonic Orchestra), Bohdan Warchal (Slovak Chamber Orchestra)
Аудио кодек: ape
Тип рипа: image+.cue
Битрейт аудио: lossless
Продолжительность: 02h07'15"
Источник: intoclassics
Наличие сканов в содержимом раздачи: да-

Треклист

CD1 – 01h09'25"
Symphony № 5 e-moll Op 64
01. I. Andante – Allegro con anima [14'25"]
02. II. Andante cantabile – Con alcuna licenza [11'48"]
03. III. Valse – Allegro moderato [06'01"]
04. IV. Finale – Andante maestoso – Allegro vivo [12'30"]
05. The Tempest, Symphonic Fantasia after Shakespeare f-moll Op 18 [24'42"]-Slovak Philharmonic Orchestra, cond. Vladimir Verbickij-

CUE

REM GENRE Classical
REM DATE 1995
PERFORMER "Tchaikovsky"
TITLE "Symphony 5"
FILE "Symphony 5.ape" WAVE
  TRACK 01 AUDIO
    TITLE "Symphony № 5 e-moll Op 64 – I. Andante – Allegro con anima"
    PERFORMER "Tchaikovsky"
    INDEX 01 00:00:00
  TRACK 02 AUDIO
    TITLE "Symphony № 5 e-moll Op 64 – II. Andante cantabile – Con alcuna licenza"
    PERFORMER "Tchaikovsky"
    INDEX 01 14:25:27
  TRACK 03 AUDIO
    TITLE "Symphony № 5 e-moll Op 64 – III. Valse – Allegro moderato"
    PERFORMER "Tchaikovsky"
    INDEX 01 26:12:65
  TRACK 04 AUDIO
    TITLE "Symphony № 5 e-moll Op 64 – IV. Finale – Andante maestoso – Allegro vivo"
    PERFORMER "Tchaikovsky"
    INDEX 01 32:13:60
  TRACK 05 AUDIO
    TITLE "The Tempest, Symphonic Fantasia after Shakespeare f-moll Op 18"
    PERFORMER "Tchaikovsky"
    INDEX 01 44:43:45
-CD2 – 00h57'49"
Symphony № 6 h-moll Op 74 «Pathetique»
01. I. Adagio [18'40"]
02. II. Allegro [08'21"]
03. III. Allegro [09'40"]
04. IV. Finale – Adagio lamentoso [10'40"]
05. Romance f-moll Op 5 [05'35"]
06. Barcarola g-moll Op 378 [04'53"]-(01-04) Zagreb Philharmonic Orchestra, cond. Kazushi Ono
(05-06) Slovak Chamber Orchestra, cond. Bohdan Warchal; Violin – Bohdan Warchal, Harp – Miloslav Vildner-

CUE

REM GENRE Classical
REM DATE 1995
PERFORMER "Tchaikovsky"
TITLE "Symphony 6"
FILE "Symphony 6.ape" WAVE
  TRACK 01 AUDIO
    TITLE "Symphony № 6 h-moll Op 74 «Pathetique» – I. Adagio"
    PERFORMER "Tchaikovsky"
    INDEX 01 00:00:00
  TRACK 02 AUDIO
    TITLE "Symphony № 6 h-moll Op 74 «Pathetique» – II. Allegro"
    PERFORMER "Tchaikovsky"
    INDEX 01 18:40:30
  TRACK 03 AUDIO
    TITLE "Symphony № 6 h-moll Op 74 «Pathetique» – III. Allegro"
    PERFORMER "Tchaikovsky"
    INDEX 01 27:01:30
  TRACK 04 AUDIO
    TITLE "Symphony № 6 h-moll Op 74 «Pathetique» – IV. Finale – Adagio lamentoso"
    PERFORMER "Tchaikovsky"
    INDEX 01 36:41:30
  TRACK 05 AUDIO
    TITLE "Romance f-moll Op 5"
    PERFORMER "Tchaikovsky"
    INDEX 01 47:21:00
  TRACK 06 AUDIO
    TITLE "Barcarola g-moll Op 378"
    PERFORMER "Tchaikovsky"
    INDEX 01 52:56:03

-

auCDtect log

-----------------------
DON'T MODIFY THIS FILE
-----------------------
PERFORMER: auCDtect Task Manager, ver. 1.5.1RC4 build 1.5.1.5
Copyright (c) 2008-2010 y-soft. All rights reserved
http://y-soft.org
ANALYZER: auCDtect: CD records authenticity detector, version 0.8.2
Copyright (c) 2004 Oleg Berngardt. All rights reserved.
Copyright (c) 2004 Alexander Djourik. All rights reserved.
FILE: Symphony 6.wav
  Size: 612013964 Hash: FF603FE548F9D83908A9DEAE442EA134 Accuracy: -m0
  Conclusion: CDDA 100%
  Signature: C263790369B5744515D25B8A3670400487B3CD68
FILE: Symphony 5.wav
  Size: 734776604 Hash: E6E49636A1C2CCE7297EFBD30DEA3078 Accuracy: -m0
  Conclusion: CDDA 100%
  Signature: D678749D037375580DFDC0483F08E43676D5B9D6

-

Срез частот

-



Показать сообщения:    

Текущее время: 03-Дек 12:37

Часовой пояс: UTC + 3


Вы не можете начинать темы
Вы не можете отвечать на сообщения
Вы не можете редактировать свои сообщения
Вы не можете удалять свои сообщения
Вы не можете голосовать в опросах
Вы не можете прикреплять файлы к сообщениям
Вы не можете скачивать файлы