(Baroque / Concerto / Violin) Antonio Vivaldi - 12 Concertos for Violins and String Orchestra [2CD\'s] (Brecon Baroque, L\'Estro Armonico, Rachel Podger) - 2015, FLAC (tracks+.cue) lossless


 

[Цитировать]

Rachel Podger - Antonio Vivaldi - L'Estro Armonico

Жанр: Baroque / Concerto / Violin
Страна-производитель диска: Made in Germany
Год издания диска: 2015
Издатель (лейбл): Channel Classics Records
Номер по каталогу: CCS SA 36515
Дата записи: 2014
Аудиокодек: FLAC
Тип рипа: tracks+.cue
Битрейт аудио: lossless
Продолжительность: 01:36:58
Источник: релизер
сайт-источник/ник/другое: dtromp
Наличие сканов в содержимом раздачи: да
Эта же запись в 24bit / 192kHz http://rutracker.org/forum/viewtopic.php?t=4953310
Треклист:

скрытый текст

CD1

скрытый текст

Concerto No. 1 in D Major (RV 549) for four violins, violoncello, strings and continuo
01. Allegro 2.58
02. Largo e spiccato 2.12
03. Allegro 2.23
Concerto No. 2 in G Minor (RV 578) for two violins, violoncello, strings and continuo
04. Adagio e spiccato – Allegro 3.48
05. Larghetto 2.32
06. Allegro 2.27
Concerto No. 3 in G Major (RV 310) for violin, strings and continuo
07. Allegro 2.14
08. Largo 2.08
09. Allegro 2.08
Concerto No. 4 in E Minor (RV 550) for four violins, strings and continuo
10. Andante 1.44
11. Allegro assai 2.15
12. Adagio – Allegro 2.41
Concerto No. 5 in A Major (RV 519) for two violins, strings and continuo
13. Allegro 2.51
14. Largo 1.23
15. Allegro 2.48
Concerto No. 6 in A Minor (RV 356) for violin, strings and continuo
16. Allegro 2.53
17. Largo 1.52
18. Presto 2.30
CD2

скрытый текст

Concerto No. 7 in F Major (RV 567) for four violins, strings and continuo
01. Andante 2.23
02. Adagio 1.12
03. Adagio – Allegro 4.34
Concerto No. 8 in A Minor (RV 522) for two violins, strings and continuo
04. Allegro 3.12
05. Larghetto e spiritoso 2.43
06. Allegro 2.48
Concerto No. 9 in D Major (RV 230) for violin, strings and continuo
07. Allegro 2.03
08. Larghetto 2.32
09. Allegro 2.02
Concerto No. 10 in B Minor (RV 580) for four violins, violoncello, strings and continuo
10. Allegro 3.25
11. Largo – Larghetto 1.56
12. Allegro 3.16
Concerto No. 11 in D Minor (RV 565) for two violins, violoncello, strings and continuo
13. Allegro – Adagio 4.00
14. Largo e spiccato 2.19
15. Allegro 2.18
Concerto No. 12 in E Major (RV 265) for violin, strings and continuo
16. Allegro 3.19
17. Largo 3.37
18. Allegro 2.58
Исполнители:

скрытый текст

Antonio Vivaldi (1678-1741)
12 Concertos for Violins and String Orchestra
Brecon Baroque:
Rachel Podger violin/director
Bojan Čičić violin (solo nos. 2 & 11)
Johannes Pramsohler violin (solo nos. 5 & 8)
Sabine Stoffer violin
Janes Rogers viola
Ricardo Cuende Isuskiza viola
Alison McGillivray violoncello
Jan Spencer violone
Daniele Caminiti theorbo
David Miller theorbo/guitar
Marcin Świątkiewicz harpsichord/organ
Recording location
St John the Evangelist Church, Upper Norwood, London
Recording dates
February and September 2014

Лог создания рипа

CD1

скрытый текст

Exact Audio Copy V1.0 beta 6 from 9. April 2015
EAC extraction logfile from 16. July 2015, 13:43
Rachel Podger / L'Estro Armonico
Used drive : ATAPI iHBS112 2 Adapter: 1 ID: 0
Read mode : Secure
Utilize accurate stream : Yes
Defeat audio cache : Yes
Make use of C2 pointers : No
Read offset correction : 6
Overread into Lead-In and Lead-Out : No
Fill up missing offset samples with silence : Yes
Delete leading and trailing silent blocks : No
Null samples used in CRC calculations : Yes
Used interface : Native Win32 interface for Win NT & 2000
Gap handling : Appended to previous track
Used output format : User Defined Encoder
Selected bitrate : 1024 kBit/s
Quality : High
Add ID3 tag : No
Command line compressor : C:\Program Files\Exact Audio Copy\Flac\flac.exe
Additional command line options : -8 -V -T "ARTIST=%artist%" -T "TITLE=%title%" -T "ALBUM=%albumtitle%" -T "DATE=%year%" -T "TRACKNUMBER=%tracknr%" -T "TOTALTRACKS=%numtracks%" -T "GENRE=%genre%" -T "ALBUMARTIST=%albumartist%" -T "ALBUM ARTIST=%albumartist%" -T "COMPOSER=%composer%" -T "PERFORMER=%albuminterpret%" -T "DISCNUMBER=%cdnumber%" -T "TOTALDISCS=%totalcds%" -T "COMMENT=EAC Secure Mode, Test & Copy, AccurateRip, FLAC -8" %source%
TOC of the extracted CD
Track | Start | Length | Start sector | End sector
---------------------------------------------------------
1 | 0:00.00 | 3:01.02 | 0 | 13576
2 | 3:01.02 | 2:14.65 | 13577 | 23691
3 | 5:15.67 | 2:32.21 | 23692 | 35112
4 | 7:48.13 | 3:49.66 | 35113 | 52353
5 | 11:38.04 | 2:40.37 | 52354 | 64390
6 | 14:18.41 | 2:36.36 | 64391 | 76126
7 | 16:55.02 | 2:17.53 | 76127 | 86454
8 | 19:12.55 | 2:09.37 | 86455 | 96166
9 | 21:22.17 | 2:20.28 | 96167 | 106694
10 | 23:42.45 | 1:44.62 | 106695 | 114556
11 | 25:27.32 | 2:15.51 | 114557 | 124732
12 | 27:43.08 | 2:41.29 | 124733 | 136836
13 | 30:24.37 | 2:53.26 | 136837 | 149837
14 | 33:17.63 | 1:24.58 | 149838 | 156195
15 | 34:42.46 | 2:56.66 | 156196 | 169461
16 | 37:39.37 | 2:56.59 | 169462 | 182720
17 | 40:36.21 | 1:54.17 | 182721 | 191287
18 | 42:30.38 | 2:30.06 | 191288 | 202543
Track 1
Filename P:\DL\Rachel Podger - L'Estro Armonico (2015) [FLAC]\01 - Concerto for 4 violins, strings & continuo in D major No. 1, Op. 3-1, RV 549- I. Allegro.wav
Pre-gap length 0:00:02.00
Peak level 67.1 %
Extraction speed 1.8 X
Track quality 100.0 %
Test CRC 3019EB9E
Copy CRC 3019EB9E
Accurately ripped (confidence 8) [0F7CD685] (AR v2)
Copy OK
Track 2
Filename P:\DL\Rachel Podger - L'Estro Armonico (2015) [FLAC]\02 - Concerto for 4 violins, strings & continuo in D major No. 1, Op. 3-1, RV 549- II. Largo e spiccato.wav
Pre-gap length 0:00:03.04
Peak level 54.4 %
Extraction speed 1.9 X
Track quality 100.0 %
Test CRC E32DD5FE
Copy CRC E32DD5FE
Accurately ripped (confidence 8) [6860EA9C] (AR v2)
Copy OK
Track 3
Filename P:\DL\Rachel Podger - L'Estro Armonico (2015) [FLAC]\03 - Concerto for 4 violins, strings & continuo in D major No. 1, Op. 3-1, RV 549- III. Allegro.wav
Pre-gap length 0:00:02.14
Peak level 77.6 %
Extraction speed 2.0 X
Track quality 100.0 %
Test CRC D9BBBD73
Copy CRC D9BBBD73
Accurately ripped (confidence 8) [EC4C1D43] (AR v2)
Copy OK
Track 4
Filename P:\DL\Rachel Podger - L'Estro Armonico (2015) [FLAC]\04 - Concerto for 2 violins, cello, strings & continuo in G minor No. 2, Op. 3-2, RV 578- Adagio - I. Allegro.wav
Pre-gap length 0:00:09.04
Peak level 93.8 %
Extraction speed 2.3 X
Track quality 100.0 %
Test CRC CB0250BE
Copy CRC CB0250BE
Accurately ripped (confidence 8) [8E1B2845] (AR v2)
Copy OK
Track 5
Filename P:\DL\Rachel Podger - L'Estro Armonico (2015) [FLAC]\05 - Concerto for 2 violins, cello, strings & continuo in G minor No. 2, Op. 3-2, RV 578- II. Larghetto.wav
Pre-gap length 0:00:01.62
Peak level 68.7 %
Extraction speed 2.3 X
Track quality 100.0 %
Test CRC 903326BC
Copy CRC 903326BC
Accurately ripped (confidence 8) [5E9C6CF2] (AR v2)
Copy OK
Track 6
Filename P:\DL\Rachel Podger - L'Estro Armonico (2015) [FLAC]\06 - Concerto for 2 violins, cello, strings & continuo in G minor No. 2, Op. 3-2, RV 578- III. Allegro.wav
Peak level 65.9 %
Extraction speed 2.4 X
Track quality 100.0 %
Test CRC 2E4D0674
Copy CRC 2E4D0674
Accurately ripped (confidence 8) [0E2BAFED] (AR v2)
Copy OK
Track 7
Filename P:\DL\Rachel Podger - L'Estro Armonico (2015) [FLAC]\07 - Violin Concerto, for violin, strings & continuo in G major No. 3, Op. 3-3, RV 310- I. Allegro.wav
Pre-gap length 0:00:08.12
Peak level 91.5 %
Extraction speed 2.5 X
Track quality 100.0 %
Test CRC 8F131820
Copy CRC 8F131820
Accurately ripped (confidence 8) [E19BFAF2] (AR v2)
Copy OK
Track 8
Filename P:\DL\Rachel Podger - L'Estro Armonico (2015) [FLAC]\08 - Violin Concerto, for violin, strings & continuo in G major No. 3, Op. 3-3, RV 310- II. Largo.wav
Pre-gap length 0:00:03.69
Peak level 64.7 %
Extraction speed 1.6 X
Track quality 99.9 %
Test CRC AE495ABF
Copy CRC AE495ABF
Accurately ripped (confidence 8) [10F581A7] (AR v2)
Copy OK
Track 9
Filename P:\DL\Rachel Podger - L'Estro Armonico (2015) [FLAC]\09 - Violin Concerto, for violin, strings & continuo in G major No. 3, Op. 3-3, RV 310- III. Allegro.wav
Pre-gap length 0:00:00.94
Peak level 63.4 %
Extraction speed 2.6 X
Track quality 100.0 %
Test CRC 4A41A9A0
Copy CRC 4A41A9A0
Accurately ripped (confidence 8) [BDCC4BAB] (AR v2)
Copy OK
Track 10
Filename P:\DL\Rachel Podger - L'Estro Armonico (2015) [FLAC]\10 - Concerto for 4 violins, strings & continuo in E minor No. 4, Op. 3-4, RV 550- I. Andante.wav
Pre-gap length 0:00:12.24
Peak level 94.9 %
Extraction speed 2.5 X
Track quality 100.0 %
Test CRC 6D5234C9
Copy CRC 6D5234C9
Accurately ripped (confidence 8) [882A05F1] (AR v2)
Copy OK
Track 11
Filename P:\DL\Rachel Podger - L'Estro Armonico (2015) [FLAC]\11 - Concerto for 4 violins, strings & continuo in E minor No. 4, Op. 3-4, RV 550- II. Allegro assai.wav
Peak level 73.1 %
Extraction speed 2.7 X
Track quality 100.0 %
Test CRC 318D791F
Copy CRC 318D791F
Accurately ripped (confidence 8) [A1E19DF9] (AR v2)
Copy OK
Track 12
Filename P:\DL\Rachel Podger - L'Estro Armonico (2015) [FLAC]\12 - Concerto for 4 violins, strings & continuo in E minor No. 4, Op. 3-4, RV 550- III. Adagio - Allegro.wav
Peak level 65.9 %
Extraction speed 2.9 X
Track quality 100.0 %
Test CRC 010173DF
Copy CRC 010173DF
Accurately ripped (confidence 8) [6E19187B] (AR v2)
Copy OK
Track 13
Filename P:\DL\Rachel Podger - L'Estro Armonico (2015) [FLAC]\13 - Double Violin Concerto, for 2 violins, strings & continuo in A major No. 5, Op. 3-5, RV 519- I. Allegro.wav
Peak level 80.5 %
Extraction speed 3.0 X
Track quality 100.0 %
Test CRC B84B700E
Copy CRC B84B700E
Accurately ripped (confidence 8) [996EA057] (AR v2)
Copy OK
Track 14
Filename P:\DL\Rachel Podger - L'Estro Armonico (2015) [FLAC]\14 - Double Violin Concerto, for 2 violins, strings & continuo in A major No. 5, Op. 3-5, RV 519- II. Largo.wav
Pre-gap length 0:00:02.14
Peak level 30.9 %
Extraction speed 2.6 X
Track quality 100.0 %
Test CRC 8663AD3D
Copy CRC 8663AD3D
Accurately ripped (confidence 8) [2B68BEAB] (AR v2)
Copy OK
Track 15
Filename P:\DL\Rachel Podger - L'Estro Armonico (2015) [FLAC]\15 - Double Violin Concerto, for 2 violins, strings & continuo in A major No. 5, Op. 3-5, RV 519- III. Allegro.wav
Pre-gap length 0:00:01.32
Peak level 75.9 %
Extraction speed 3.2 X
Track quality 100.0 %
Test CRC 7BB7079C
Copy CRC 7BB7079C
Accurately ripped (confidence 8) [38E5655C] (AR v2)
Copy OK
Track 16
Filename P:\DL\Rachel Podger - L'Estro Armonico (2015) [FLAC]\16 - Violin Concerto, for violin, strings & continuo in A minor No. 6, Op. 3-6, RV 356- I. Allegro.wav
Pre-gap length 0:00:08.89
Peak level 56.8 %
Extraction speed 3.3 X
Track quality 100.0 %
Test CRC 3AC7D190
Copy CRC 3AC7D190
Accurately ripped (confidence 8) [B99D9CF7] (AR v2)
Copy OK
Track 17
Filename P:\DL\Rachel Podger - L'Estro Armonico (2015) [FLAC]\17 - Violin Concerto, for violin, strings & continuo in A minor No. 6, Op. 3-6, RV 356- II. Largo.wav
Pre-gap length 0:00:03.01
Peak level 33.5 %
Extraction speed 3.0 X
Track quality 100.0 %
Test CRC 1A55DDE4
Copy CRC 1A55DDE4
Accurately ripped (confidence 8) [2935734F] (AR v2)
Copy OK
Track 18
Filename P:\DL\Rachel Podger - L'Estro Armonico (2015) [FLAC]\18 - Violin Concerto, for violin, strings & continuo in A minor No. 6, Op. 3-6, RV 356- III. Presto.wav
Pre-gap length 0:00:01.16
Peak level 56.8 %
Extraction speed 2.2 X
Track quality 99.9 %
Test CRC C52C4025
Copy CRC C52C4025
Accurately ripped (confidence 8) [130314F3] (AR v2)
Copy OK
All tracks accurately ripped
No errors occurred
End of status report
---- CUETools DB Plugin V2.1.6
[CTDB TOCID: G2jO9P0aTJkKOzTpdOPMo3fq5f8-] found
Submit result:
Track | CTDB Status
1 | (10/10) Accurately ripped
2 | (10/10) Accurately ripped
3 | (10/10) Accurately ripped
4 | (10/10) Accurately ripped
5 | (10/10) Accurately ripped
6 | (10/10) Accurately ripped
7 | (10/10) Accurately ripped
8 | (10/10) Accurately ripped
9 | (10/10) Accurately ripped
10 | (10/10) Accurately ripped
11 | (10/10) Accurately ripped
12 | (10/10) Accurately ripped
13 | (10/10) Accurately ripped
14 | (10/10) Accurately ripped
15 | (10/10) Accurately ripped
16 | (10/10) Accurately ripped
17 | (10/10) Accurately ripped
18 | (10/10) Accurately ripped
==== Log checksum 2F9F07BD948C8B3CE3EB2D6AB4E3BE72CED471B86872489256495674D7593C00 ===
CD2

скрытый текст

Exact Audio Copy V1.0 beta 6 from 9. April 2015
EAC extraction logfile from 16. July 2015, 15:43
Rachel Podger / L'Estro Armonico
Used drive : ATAPI iHBS112 2 Adapter: 1 ID: 0
Read mode : Secure
Utilize accurate stream : Yes
Defeat audio cache : Yes
Make use of C2 pointers : No
Read offset correction : 6
Overread into Lead-In and Lead-Out : No
Fill up missing offset samples with silence : Yes
Delete leading and trailing silent blocks : No
Null samples used in CRC calculations : Yes
Used interface : Native Win32 interface for Win NT & 2000
Gap handling : Appended to previous track
Used output format : User Defined Encoder
Selected bitrate : 1024 kBit/s
Quality : High
Add ID3 tag : No
Command line compressor : C:\Program Files\Exact Audio Copy\Flac\flac.exe
Additional command line options : -8 -V -T "ARTIST=%artist%" -T "TITLE=%title%" -T "ALBUM=%albumtitle%" -T "DATE=%year%" -T "TRACKNUMBER=%tracknr%" -T "TOTALTRACKS=%numtracks%" -T "GENRE=%genre%" -T "ALBUMARTIST=%albumartist%" -T "ALBUM ARTIST=%albumartist%" -T "COMPOSER=%composer%" -T "PERFORMER=%albuminterpret%" -T "DISCNUMBER=%cdnumber%" -T "TOTALDISCS=%totalcds%" -T "COMMENT=EAC Secure Mode, Test & Copy, AccurateRip, FLAC -8" %source%
TOC of the extracted CD
Track | Start | Length | Start sector | End sector
---------------------------------------------------------
1 | 0:00.00 | 2:25.50 | 0 | 10924
2 | 2:25.50 | 1:12.69 | 10925 | 16393
3 | 3:38.44 | 4:44.59 | 16394 | 37752
4 | 8:23.28 | 3:14.07 | 37753 | 52309
5 | 11:37.35 | 2:45.43 | 52310 | 64727
6 | 14:23.03 | 2:57.72 | 64728 | 78074
7 | 17:21.00 | 2:05.01 | 78075 | 87450
8 | 19:26.01 | 2:33.64 | 87451 | 98989
9 | 21:59.65 | 2:13.58 | 98990 | 109022
10 | 24:13.48 | 3:26.72 | 109023 | 124544
11 | 27:40.45 | 1:56.70 | 124545 | 133314
12 | 29:37.40 | 3:27.50 | 133315 | 148889
13 | 33:05.15 | 4:02.00 | 148890 | 167039
14 | 37:07.15 | 2:20.28 | 167040 | 177567
15 | 39:27.43 | 2:31.12 | 177568 | 188904
16 | 41:58.55 | 3:24.20 | 188905 | 204224
17 | 45:23.00 | 3:37.15 | 204225 | 220514
18 | 49:00.15 | 2:59.35 | 220515 | 233974
Track 1
Filename P:\DL\Rachel Podger - L'Estro Armonico (2015) [FLAC]\01 - Concerto for 4 violins, cello, strings & continuo in F major No. 7 Op. 3-7, RV 567- I. Andante.wav
Pre-gap length 0:00:02.00
Peak level 77.1 %
Extraction speed 1.0 X
Track quality 100.0 %
Test CRC BACCC9CB
Copy CRC BACCC9CB
Accurately ripped (confidence 7) [91FE2A09] (AR v2)
Copy OK
Track 2
Filename P:\DL\Rachel Podger - L'Estro Armonico (2015) [FLAC]\02 - Concerto for 4 violins, cello, strings & continuo in F major No. 7 Op. 3-7, RV 567- II. Adagio.wav
Peak level 84.8 %
Extraction speed 0.8 X
Track quality 100.0 %
Test CRC 9F85A01F
Copy CRC 9F85A01F
Accurately ripped (confidence 7) [E468E062] (AR v2)
Copy OK
Track 3
Filename P:\DL\Rachel Podger - L'Estro Armonico (2015) [FLAC]\03 - Concerto for 4 violins, cello, strings & continuo in F major No. 7 Op. 3-7, RV 567- III. Adagio - Allegro.wav
Peak level 85.6 %
Extraction speed 1.2 X
Track quality 100.0 %
Test CRC 350A718B
Copy CRC 350A718B
Accurately ripped (confidence 7) [5B41AB10] (AR v2)
Copy OK
Track 4
Filename P:\DL\Rachel Podger - L'Estro Armonico (2015) [FLAC]\04 - Double Violin Concerto, for 2 violins, strings & continuo in A minor No. 8, Op. 3-8, RV 522- I. Allegro.wav
Pre-gap length 0:00:10.64
Peak level 80.9 %
Extraction speed 1.3 X
Track quality 100.0 %
Test CRC 25D1AAB3
Copy CRC 25D1AAB3
Accurately ripped (confidence 7) [86D71C5B] (AR v2)
Copy OK
Track 5
Filename P:\DL\Rachel Podger - L'Estro Armonico (2015) [FLAC]\05 - Double Violin Concerto, for 2 violins, strings & continuo in A minor No. 8, Op. 3-8, RV 522- II. Larghetto.wav
Pre-gap length 0:00:01.82
Peak level 45.9 %
Extraction speed 1.3 X
Track quality 100.0 %
Test CRC 87241E95
Copy CRC 87241E95
Accurately ripped (confidence 7) [FFAECEE9] (AR v2)
Copy OK
Track 6
Filename P:\DL\Rachel Podger - L'Estro Armonico (2015) [FLAC]\06 - Double Violin Concerto, for 2 violins, strings & continuo in A minor No. 8, Op. 3-8, RV 522- III. Allegro.wav
Pre-gap length 0:00:01.53
Peak level 98.7 %
Extraction speed 1.3 X
Track quality 99.9 %
Test CRC 6A11DBCF
Copy CRC 6A11DBCF
Accurately ripped (confidence 7) [AFDAC9F5] (AR v2)
Copy OK
Track 7
Filename P:\DL\Rachel Podger - L'Estro Armonico (2015) [FLAC]\07 - Violin Concerto, for violin, strings & continuo in D major No. 9, Op. 3-9, RV 230- I. Allegro.wav
Pre-gap length 0:00:08.82
Peak level 71.5 %
Extraction speed 1.4 X
Track quality 100.0 %
Test CRC 809AC6F4
Copy CRC 809AC6F4
Accurately ripped (confidence 7) [9099A467] (AR v2)
Copy OK
Track 8
Filename P:\DL\Rachel Podger - L'Estro Armonico (2015) [FLAC]\08 - Violin Concerto, for violin, strings & continuo in D major No. 9, Op. 3-9, RV 230- II. Larghetto.wav
Pre-gap length 0:00:01.10
Peak level 39.3 %
Extraction speed 1.5 X
Track quality 100.0 %
Test CRC 7585845F
Copy CRC 7585845F
Accurately ripped (confidence 7) [C0D0C2BD] (AR v2)
Copy OK
Track 9
Filename P:\DL\Rachel Podger - L'Estro Armonico (2015) [FLAC]\09 - Violin Concerto, for violin, strings & continuo in D major No. 9, Op. 3-9, RV 230- III. Allegro.wav
Pre-gap length 0:00:01.29
Peak level 51.0 %
Extraction speed 1.3 X
Track quality 99.9 %
Test CRC C8B09CEC
Copy CRC C8B09CEC
Accurately ripped (confidence 7) [203283FE] (AR v2)
Copy OK
Track 10
Filename P:\DL\Rachel Podger - L'Estro Armonico (2015) [FLAC]\10 - Concerto for 4 violins, cello, strings & continuo in B minor No. 10 Op. 3-10, RV 580- I. Allegro.wav
Pre-gap length 0:00:09.64
Peak level 93.5 %
Extraction speed 1.7 X
Track quality 100.0 %
Test CRC 00427CC0
Copy CRC 00427CC0
Accurately ripped (confidence 7) [8C67F5A3] (AR v2)
Copy OK
Track 11
Filename P:\DL\Rachel Podger - L'Estro Armonico (2015) [FLAC]\11 - Concerto for 4 violins, cello, strings & continuo in B minor No. 10 Op. 3-10, RV 580- II. Largo - Larghetto.wav
Pre-gap length 0:00:00.89
Peak level 91.2 %
Extraction speed 1.5 X
Track quality 100.0 %
Test CRC B7DEF67E
Copy CRC B7DEF67E
Accurately ripped (confidence 7) [33A15370] (AR v2)
Copy OK
Track 12
Filename P:\DL\Rachel Podger - L'Estro Armonico (2015) [FLAC]\12 - Concerto for 4 violins, cello, strings & continuo in B minor No. 10 Op. 3-10, RV 580- III. Allegro.wav
Peak level 95.7 %
Extraction speed 1.8 X
Track quality 100.0 %
Test CRC F55DF13D
Copy CRC F55DF13D
Accurately ripped (confidence 7) [4938F242] (AR v2)
Copy OK
Track 13
Filename P:\DL\Rachel Podger - L'Estro Armonico (2015) [FLAC]\13 - Concerto for 2 violins, cello, strings & continuo in D minor No. 11, Op. 3-11, RV 565- I. Allegro - Adagio.wav
Pre-gap length 0:00:09.96
Peak level 92.8 %
Extraction speed 1.7 X
Track quality 99.9 %
Test CRC 94D2CA0E
Copy CRC 94D2CA0E
Accurately ripped (confidence 7) [CDB701CA] (AR v2)
Copy OK
Track 14
Filename P:\DL\Rachel Podger - L'Estro Armonico (2015) [FLAC]\14 - Concerto for 2 violins, cello, strings & continuo in D minor No. 11, Op. 3-11, RV 565- II. Largo e spiccato.wav
Pre-gap length 0:00:01.93
Peak level 35.2 %
Extraction speed 1.7 X
Track quality 100.0 %
Test CRC 2E3B8271
Copy CRC 2E3B8271
Accurately ripped (confidence 7) [EE0C781F] (AR v2)
Copy OK
Track 15
Filename P:\DL\Rachel Podger - L'Estro Armonico (2015) [FLAC]\15 - Concerto for 2 violins, cello, strings & continuo in D minor No. 11, Op. 3-11, RV 565- III. Allegro.wav
Pre-gap length 0:00:01.26
Peak level 77.1 %
Extraction speed 1.8 X
Track quality 100.0 %
Test CRC 5B4A6472
Copy CRC 5B4A6472
Accurately ripped (confidence 7) [DF333CC1] (AR v2)
Copy OK
Track 16
Filename P:\DL\Rachel Podger - L'Estro Armonico (2015) [FLAC]\16 - Violin Concerto, for violin, strings & continuo in E major No. 12, Op. 3-12, RV 265- I. Allegro.wav
Pre-gap length 0:00:11.29
Peak level 71.1 %
Extraction speed 2.0 X
Track quality 100.0 %
Test CRC C38BF71B
Copy CRC C38BF71B
Accurately ripped (confidence 7) [D51663E9] (AR v2)
Copy OK
Track 17
Filename P:\DL\Rachel Podger - L'Estro Armonico (2015) [FLAC]\17 - Violin Concerto, for violin, strings & continuo in E major No. 12, Op. 3-12, RV 265- II. Largo.wav
Pre-gap length 0:00:04.13
Peak level 52.6 %
Extraction speed 2.0 X
Track quality 100.0 %
Test CRC ECA60A84
Copy CRC ECA60A84
Accurately ripped (confidence 7) [52782ED7] (AR v2)
Copy OK
Track 18
Filename P:\DL\Rachel Podger - L'Estro Armonico (2015) [FLAC]\18 - Violin Concerto, for violin, strings & continuo in E major No. 12, Op. 3-12, RV 265- III. Allegro.wav
Pre-gap length 0:00:01.09
Peak level 100.0 %
Extraction speed 2.0 X
Track quality 100.0 %
Test CRC 4BC171D0
Copy CRC 4BC171D0
Accurately ripped (confidence 7) [9AC2B9B9] (AR v2)
Copy OK
All tracks accurately ripped
No errors occurred
End of status report
---- CUETools DB Plugin V2.1.6
[CTDB TOCID: UVn1v3im18r7oieeelvi4TVVjsQ-] found
Submit result:
Track | CTDB Status
1 | (13/13) Accurately ripped
2 | (13/13) Accurately ripped
3 | (13/13) Accurately ripped
4 | (13/13) Accurately ripped
5 | (13/13) Accurately ripped
6 | (13/13) Accurately ripped
7 | (13/13) Accurately ripped
8 | (13/13) Accurately ripped
9 | (13/13) Accurately ripped
10 | (13/13) Accurately ripped
11 | (13/13) Accurately ripped
12 | (13/13) Accurately ripped
13 | (13/13) Accurately ripped
14 | (13/13) Accurately ripped
15 | (13/13) Accurately ripped
16 | (13/13) Accurately ripped
17 | (13/13) Accurately ripped
18 | (13/13) Accurately ripped
==== Log checksum DAD9A2CFCA2B57ED6AA61F9B9947FDB4596260C8DA7A63D745A1BEFA4CC31332 ====

Содержание индексной карты (.CUE)

CD1

скрытый текст

REM GENRE Classical
REM DATE 2015
REM DISCID EF0A8C12
REM COMMENT "ExactAudioCopy v1.0b6"
PERFORMER "Rachel Podger"
TITLE "L'Estro Armonico"
FILE "01 - Concerto for 4 violins, strings & continuo in D major No. 1, Op. 3-1, RV 549- I. Allegro.wav" WAVE
TRACK 01 AUDIO
TITLE "Concerto for 4 violins, strings & continuo in D major No. 1, Op. 3/1, RV 549:..."
PERFORMER "Rachel Podger"
INDEX 01 00:00:00
TRACK 02 AUDIO
TITLE "Concerto for 4 violins, strings & continuo in D major No. 1, Op. 3/1, RV 549:..."
PERFORMER "Rachel Podger"
INDEX 00 02:57:74
FILE "02 - Concerto for 4 violins, strings & continuo in D major No. 1, Op. 3-1, RV 549- II. Largo e spiccato.wav" WAVE
INDEX 01 00:00:00
TRACK 03 AUDIO
TITLE "Concerto for 4 violins, strings & continuo in D major No. 1, Op. 3/1, RV 549:..."
PERFORMER "Rachel Podger"
INDEX 00 02:12:54
FILE "03 - Concerto for 4 violins, strings & continuo in D major No. 1, Op. 3-1, RV 549- III. Allegro.wav" WAVE
INDEX 01 00:00:00
TRACK 04 AUDIO
TITLE "Concerto for 2 violins, cello, strings & continuo in G minor No. 2, Op. 3/2, ..."
PERFORMER "Rachel Podger"
INDEX 00 02:23:18
FILE "04 - Concerto for 2 violins, cello, strings & continuo in G minor No. 2, Op. 3-2, RV 578- Adagio - I. Allegro.wav" WAVE
INDEX 01 00:00:00
TRACK 05 AUDIO
TITLE "Concerto for 2 violins, cello, strings & continuo in G minor No. 2, Op. 3/2, ..."
PERFORMER "Rachel Podger"
INDEX 00 03:48:19
FILE "05 - Concerto for 2 violins, cello, strings & continuo in G minor No. 2, Op. 3-2, RV 578- II. Larghetto.wav" WAVE
INDEX 01 00:00:00
FILE "06 - Concerto for 2 violins, cello, strings & continuo in G minor No. 2, Op. 3-2, RV 578- III. Allegro.wav" WAVE
TRACK 06 AUDIO
TITLE "Concerto for 2 violins, cello, strings & continuo in G minor No. 2, Op. 3/2, ..."
PERFORMER "Rachel Podger"
INDEX 01 00:00:00
TRACK 07 AUDIO
TITLE "Violin Concerto, for violin, strings & continuo in G major No. 3, Op. 3/3, RV..."
PERFORMER "Rachel Podger"
INDEX 00 02:28:27
FILE "07 - Violin Concerto, for violin, strings & continuo in G major No. 3, Op. 3-3, RV 310- I. Allegro.wav" WAVE
INDEX 01 00:00:00
TRACK 08 AUDIO
TITLE "Violin Concerto, for violin, strings & continuo in G major No. 3, Op. 3/3, RV..."
PERFORMER "Rachel Podger"
INDEX 00 02:14:01
FILE "08 - Violin Concerto, for violin, strings & continuo in G major No. 3, Op. 3-3, RV 310- II. Largo.wav" WAVE
INDEX 01 00:00:00
TRACK 09 AUDIO
TITLE "Violin Concerto, for violin, strings & continuo in G major No. 3, Op. 3/3, RV..."
PERFORMER "Rachel Podger"
INDEX 00 02:08:41
FILE "09 - Violin Concerto, for violin, strings & continuo in G major No. 3, Op. 3-3, RV 310- III. Allegro.wav" WAVE
INDEX 01 00:00:00
TRACK 10 AUDIO
TITLE "Concerto for 4 violins, strings & continuo in E minor No. 4, Op. 3/4, RV 550:..."
PERFORMER "Rachel Podger"
INDEX 00 02:08:10
FILE "10 - Concerto for 4 violins, strings & continuo in E minor No. 4, Op. 3-4, RV 550- I. Andante.wav" WAVE
INDEX 01 00:00:00
FILE "11 - Concerto for 4 violins, strings & continuo in E minor No. 4, Op. 3-4, RV 550- II. Allegro assai.wav" WAVE
TRACK 11 AUDIO
TITLE "Concerto for 4 violins, strings & continuo in E minor No. 4, Op. 3/4, RV 550:..."
PERFORMER "Rachel Podger"
INDEX 01 00:00:00
FILE "12 - Concerto for 4 violins, strings & continuo in E minor No. 4, Op. 3-4, RV 550- III. Adagio - Allegro.wav" WAVE
TRACK 12 AUDIO
TITLE "Concerto for 4 violins, strings & continuo in E minor No. 4, Op. 3/4, RV 550:..."
PERFORMER "Rachel Podger"
INDEX 01 00:00:00
FILE "13 - Double Violin Concerto, for 2 violins, strings & continuo in A major No. 5, Op. 3-5, RV 519- I. Allegro.wav" WAVE
TRACK 13 AUDIO
TITLE "Double Violin Concerto, for 2 violins, strings & continuo in A major No. 5, O..."
PERFORMER "Rachel Podger"
INDEX 01 00:00:00
TRACK 14 AUDIO
TITLE "Double Violin Concerto, for 2 violins, strings & continuo in A major No. 5, O..."
PERFORMER "Rachel Podger"
INDEX 00 02:51:15
FILE "14 - Double Violin Concerto, for 2 violins, strings & continuo in A major No. 5, Op. 3-5, RV 519- II. Largo.wav" WAVE
INDEX 01 00:00:00
TRACK 15 AUDIO
TITLE "Double Violin Concerto, for 2 violins, strings & continuo in A major No. 5, O..."
PERFORMER "Rachel Podger"
INDEX 00 01:23:34
FILE "15 - Double Violin Concerto, for 2 violins, strings & continuo in A major No. 5, Op. 3-5, RV 519- III. Allegro.wav" WAVE
INDEX 01 00:00:00
TRACK 16 AUDIO
TITLE "Violin Concerto, for violin, strings & continuo in A minor No. 6, Op. 3/6, RV..."
PERFORMER "Rachel Podger"
INDEX 00 02:47:74
FILE "16 - Violin Concerto, for violin, strings & continuo in A minor No. 6, Op. 3-6, RV 356- I. Allegro.wav" WAVE
INDEX 01 00:00:00
TRACK 17 AUDIO
TITLE "Violin Concerto, for violin, strings & continuo in A minor No. 6, Op. 3/6, RV..."
PERFORMER "Rachel Podger"
INDEX 00 02:53:58
FILE "17 - Violin Concerto, for violin, strings & continuo in A minor No. 6, Op. 3-6, RV 356- II. Largo.wav" WAVE
INDEX 01 00:00:00
TRACK 18 AUDIO
TITLE "Violin Concerto, for violin, strings & continuo in A minor No. 6, Op. 3/6, RV..."
PERFORMER "Rachel Podger"
INDEX 00 01:53:05
FILE "18 - Violin Concerto, for violin, strings & continuo in A minor No. 6, Op. 3-6, RV 356- III. Presto.wav" WAVE
INDEX 01 00:00:00
CD2

скрытый текст

REM GENRE Classical
REM DATE 2015
REM DISCID 030C2F12
REM COMMENT "ExactAudioCopy v1.0b6"
PERFORMER "Rachel Podger"
TITLE "L'Estro Armonico"
FILE "01 - Concerto for 4 violins, cello, strings & continuo in F major No. 7 Op. 3-7, RV 567- I. Andante.wav" WAVE
TRACK 01 AUDIO
TITLE "Concerto for 4 violins, cello, strings & continuo in F major No. 7 Op. 3/7, R..."
PERFORMER "Rachel Podger"
INDEX 01 00:00:00
FILE "02 - Concerto for 4 violins, cello, strings & continuo in F major No. 7 Op. 3-7, RV 567- II. Adagio.wav" WAVE
TRACK 02 AUDIO
TITLE "Concerto for 4 violins, cello, strings & continuo in F major No. 7 Op. 3/7, R..."
PERFORMER "Rachel Podger"
INDEX 01 00:00:00
FILE "03 - Concerto for 4 violins, cello, strings & continuo in F major No. 7 Op. 3-7, RV 567- III. Adagio - Allegro.wav" WAVE
TRACK 03 AUDIO
TITLE "Concerto for 4 violins, cello, strings & continuo in F major No. 7 Op. 3/7, R..."
PERFORMER "Rachel Podger"
INDEX 01 00:00:00
TRACK 04 AUDIO
TITLE "Double Violin Concerto, for 2 violins, strings & continuo in A minor No. 8, O..."
PERFORMER "Rachel Podger"
INDEX 00 04:34:11
FILE "04 - Double Violin Concerto, for 2 violins, strings & continuo in A minor No. 8, Op. 3-8, RV 522- I. Allegro.wav" WAVE
INDEX 01 00:00:00
TRACK 05 AUDIO
TITLE "Double Violin Concerto, for 2 violins, strings & continuo in A minor No. 8, O..."
PERFORMER "Rachel Podger"
INDEX 00 03:12:20
FILE "05 - Double Violin Concerto, for 2 violins, strings & continuo in A minor No. 8, Op. 3-8, RV 522- II. Larghetto.wav" WAVE
INDEX 01 00:00:00
TRACK 06 AUDIO
TITLE "Double Violin Concerto, for 2 violins, strings & continuo in A minor No. 8, O..."
PERFORMER "Rachel Podger"
INDEX 00 02:44:03
FILE "06 - Double Violin Concerto, for 2 violins, strings & continuo in A minor No. 8, Op. 3-8, RV 522- III. Allegro.wav" WAVE
INDEX 01 00:00:00
TRACK 07 AUDIO
TITLE "Violin Concerto, for violin, strings & continuo in D major No. 9, Op. 3/9, RV..."
PERFORMER "Rachel Podger"
INDEX 00 02:49:10
FILE "07 - Violin Concerto, for violin, strings & continuo in D major No. 9, Op. 3-9, RV 230- I. Allegro.wav" WAVE
INDEX 01 00:00:00
TRACK 08 AUDIO
TITLE "Violin Concerto, for violin, strings & continuo in D major No. 9, Op. 3/9, RV..."
PERFORMER "Rachel Podger"
INDEX 00 02:03:68
FILE "08 - Violin Concerto, for violin, strings & continuo in D major No. 9, Op. 3-9, RV 230- II. Larghetto.wav" WAVE
INDEX 01 00:00:00
TRACK 09 AUDIO
TITLE "Violin Concerto, for violin, strings & continuo in D major No. 9, Op. 3/9, RV..."
PERFORMER "Rachel Podger"
INDEX 00 02:32:42
FILE "09 - Violin Concerto, for violin, strings & continuo in D major No. 9, Op. 3-9, RV 230- III. Allegro.wav" WAVE
INDEX 01 00:00:00
TRACK 10 AUDIO
TITLE "Concerto for 4 violins, cello, strings & continuo in B minor No. 10 Op. 3/10,..."
PERFORMER "Rachel Podger"
INDEX 00 02:04:10
FILE "10 - Concerto for 4 violins, cello, strings & continuo in B minor No. 10 Op. 3-10, RV 580- I. Allegro.wav" WAVE
INDEX 01 00:00:00
TRACK 11 AUDIO
TITLE "Concerto for 4 violins, cello, strings & continuo in B minor No. 10 Op. 3/10,..."
PERFORMER "Rachel Podger"
INDEX 00 03:26:05
FILE "11 - Concerto for 4 violins, cello, strings & continuo in B minor No. 10 Op. 3-10, RV 580- II. Largo - Larghetto.wav" WAVE
INDEX 01 00:00:00
FILE "12 - Concerto for 4 violins, cello, strings & continuo in B minor No. 10 Op. 3-10, RV 580- III. Allegro.wav" WAVE
TRACK 12 AUDIO
TITLE "Concerto for 4 violins, cello, strings & continuo in B minor No. 10 Op. 3/10,..."
PERFORMER "Rachel Podger"
INDEX 01 00:00:00
TRACK 13 AUDIO
TITLE "Concerto for 2 violins, cello, strings & continuo in D minor No. 11, Op. 3/11..."
PERFORMER "Rachel Podger"
INDEX 00 03:17:53
FILE "13 - Concerto for 2 violins, cello, strings & continuo in D minor No. 11, Op. 3-11, RV 565- I. Allegro - Adagio.wav" WAVE
INDEX 01 00:00:00
TRACK 14 AUDIO
TITLE "Concerto for 2 violins, cello, strings & continuo in D minor No. 11, Op. 3/11..."
PERFORMER "Rachel Podger"
INDEX 00 04:00:05
FILE "14 - Concerto for 2 violins, cello, strings & continuo in D minor No. 11, Op. 3-11, RV 565- II. Largo e spiccato.wav" WAVE
INDEX 01 00:00:00
TRACK 15 AUDIO
TITLE "Concerto for 2 violins, cello, strings & continuo in D minor No. 11, Op. 3/11..."
PERFORMER "Rachel Podger"
INDEX 00 02:19:08
FILE "15 - Concerto for 2 violins, cello, strings & continuo in D minor No. 11, Op. 3-11, RV 565- III. Allegro.wav" WAVE
INDEX 01 00:00:00
TRACK 16 AUDIO
TITLE "Violin Concerto, for violin, strings & continuo in E major No. 12, Op. 3/12, ..."
PERFORMER "Rachel Podger"
INDEX 00 02:19:65
FILE "16 - Violin Concerto, for violin, strings & continuo in E major No. 12, Op. 3-12, RV 265- I. Allegro.wav" WAVE
INDEX 01 00:00:00
TRACK 17 AUDIO
TITLE "Violin Concerto, for violin, strings & continuo in E major No. 12, Op. 3/12, ..."
PERFORMER "Rachel Podger"
INDEX 00 03:20:10
FILE "17 - Violin Concerto, for violin, strings & continuo in E major No. 12, Op. 3-12, RV 265- II. Largo.wav" WAVE
INDEX 01 00:00:00
TRACK 18 AUDIO
TITLE "Violin Concerto, for violin, strings & continuo in E major No. 12, Op. 3/12, ..."
PERFORMER "Rachel Podger"
INDEX 00 03:36:08
FILE "18 - Violin Concerto, for violin, strings & continuo in E major No. 12, Op. 3-12, RV 265- III. Allegro.wav" WAVE
INDEX 01 00:00:00
Доп. информация:

скрытый текст

Vivaldi has, above all, always struck me as wonderfully entertaining. His musical shapes and figurations seem to exist in order to please and surprise. Always supremely idiomatic (although sometimes idiosyncratically specific), there’s also that sense of directing a sensation with a particular person in mind. In the 12 Concertos which comprise ‘L’Estro Armonico’, these qualities abound, not least because Vivaldi appears to have taken extraordinary trouble to exhibit his craft to the world, almost as a way of ‘setting out a stall’ for how a new 18thcentury concerto could now be written in the right hands. Underpinning Vivaldi’s flair, originality and meticulous attention to detail is an engine room of momentum: raw energy is regularly the order of the day with muscular layers of semiquavers and rapid acrobatics passed between the various configurations of soloists. These pieces are truly exhilarating to play and perform and their fresh impact never fails to hit some target or other, judging by the reaction of a live audience. Not often do you witness four violins trying to outdo each other! During Brecon Baroque’s concerts preceding the recording, the rapierlike turns in musical conversations between the four parts always seemed to lead to added expectation and excitement – all the more effective because of the contrasted moments of deep melancholy which Vivaldi some how manages to express irrespective of mode; like Schubert, a major key can be just as poignant and affecting as a minor in a conceit of sadness or loss. For example, in the slow movements of Concertos nos. 9 and 12 in D and E major respectively, there is an exquisite tenderness in his writing, something fragile, innocent and temporary; I catch myself wondering for whom these moments were created… I would like to thank all my wonderful colleagues for these many intense moments of energy, tenderness and joy while performing and recording these fantastic concertos – works which intrigued Bach and from which he mined so many of the very finest Vivaldian attributes.
-- Rachel Podger



Показать сообщения:    

Текущее время: 08-Дек 19:10

Часовой пояс: UTC + 3


Вы не можете начинать темы
Вы не можете отвечать на сообщения
Вы не можете редактировать свои сообщения
Вы не можете удалять свои сообщения
Вы не можете голосовать в опросах
Вы не можете прикреплять файлы к сообщениям
Вы не можете скачивать файлы