(Classical) Franz Schubert — Symphony № 10 & Other Unfinished Symphonies (Scottish Chamber Orchestra, Sir Charles Mackerras) — 1997, FLAC (tracks+.cue) lossless


 

[Цитировать]

Symphony № 10 & Other Unfinished Symphonies-
Жанр: Classical
Страна-производитель диска: Великобритания
Год издания диска: 1997 (14.10.1997)
Год записи фонограммы: 1997 (25-27.02.1997)
Издатель (лейбл): Hyperion Records Limited
Номер по каталогу: CDA67000
Композитор: Franz Peter Schubert (completed and orchestrated from Schubert's sketches by Brian Newbould)
Исполнительский коллектив: Scottish Chamber Orchestra, cond. Sir Charles Mackerras
Аудио кодек: flac
Тип рипа: tracks+.cue
Битрейт аудио: lossless
Продолжительность: 00h54'05"
Источник: What.CD
Наличие сканов в содержимом раздачи: да-Треклист:
Symphony D-Dur D 615 (fragments)
01. I. Adagio [00h03'59"]
02. II. Allegretto [00h03'13"]
Symphony D-Dur D 708a (fragments)
03. I. Allegro [00h03'09"]
04. II. Andante [00h02'44"]
05. III. Scherzo [00h07'53"]
06. IV. Presto [00h03'18"]
Symphony № 10 D-Dur D 936a
07. I. Allegro [00h11'17"]
08. II. Andante [00h10'40"]
09. III. Allegro [00h07'51"]-

XLD log

X Lossless Decoder version 20140504 (147.0)
XLD extraction logfile from 2014-08-07 00:01:48 -0500
Scottish Chamber Orchestra, Charles Mackerras / Symphony No. 10 and other unfinished symphonies
Used drive : MATSHITA DVD-R   UJ-8A8 (revision HB14)
Media type : Pressed CD
Ripper mode             : XLD Secure Ripper
Disable audio cache     : OK for the drive with a cache less than 1375KiB
Make use of C2 pointers : NO
Read offset correction  : 102
Max retry count         : 20
Gap status              : Analyzed, Appended (except HTOA)
TOC of the extracted CD
     Track |   Start  |  Length  | Start sector | End sector
    ---------------------------------------------------------
        1  | 00:01:00 | 03:59:25 |        75    |    18024
        2  | 04:00:25 | 03:13:37 |     18025    |    32536
        3  | 07:13:62 | 03:08:38 |     32537    |    46674
        4  | 10:22:25 | 02:44:25 |     46675    |    58999
        5  | 13:06:50 | 07:53:37 |     59000    |    94511
        6  | 21:00:12 | 03:17:38 |     94512    |   109324
        7  | 24:17:50 | 11:17:25 |    109325    |   160124
        8  | 35:35:00 | 10:39:67 |    160125    |   208116
        9  | 46:14:67 | 07:51:20 |    208117    |   243461
AccurateRip Summary (DiscID: 000ed44d-0072ff48-7b0cad09)
    Track 01 : OK (v1+v2, confidence 16/16)
    Track 02 : OK (v1+v2, confidence 16/16)
    Track 03 : OK (v1+v2, confidence 16/16)
    Track 04 : OK (v1+v2, confidence 16/16)
    Track 05 : OK (v1+v2, confidence 16/16)
    Track 06 : OK (v1+v2, confidence 16/16)
    Track 07 : OK (v1+v2, confidence 16/16)
    Track 08 : OK (v1+v2, confidence 15/15)
    Track 09 : OK (v1+v2, confidence 15/15)
        ->All tracks accurately ripped.
All Tracks
    Album gain               : -0.04 dB
    Peak                     : 0.983490
    Statistics
        Read error                           : 0
        Jitter error (maybe fixed)           : 0
        Retry sector count                   : 0
        Damaged sector count                 : 0
Track 01
    Filename : /Volumes/MyBook/Franz Schubert - Symphony No. 10 and other unfinished symphonies (1997) [FLAC]/01 Symphony in D major, D615 - I. Adagio-Allegro moderato.flac
    Pre-gap length : 00:03:00
    Track gain               : 3.82 dB
    Peak                     : 0.586792
    CRC32 hash (test run)    : C8F85132
    CRC32 hash               : C8F85132
    CRC32 hash (skip zero)   : 4E93E098
    AccurateRip v1 signature : CEB7A3D3
    AccurateRip v2 signature : 2BBBDB06
        ->Accurately ripped (v1+v2, confidence 9+7/16)
    Statistics
        Read error                           : 0
        Jitter error (maybe fixed)           : 0
        Retry sector count                   : 0
        Damaged sector count                 : 0
Track 02
    Filename : /Volumes/MyBook/Franz Schubert - Symphony No. 10 and other unfinished symphonies (1997) [FLAC]/02 Symphony in D major, D615 - II. [Allegretto].flac
    Pre-gap length : 00:03:58
    Track gain               : 4.83 dB
    Peak                     : 0.683868
    CRC32 hash (test run)    : 9F2239EE
    CRC32 hash               : 9F2239EE
    CRC32 hash (skip zero)   : 6A7632CB
    AccurateRip v1 signature : 7490963C
    AccurateRip v2 signature : 543F8AE6
        ->Accurately ripped (v1+v2, confidence 9+7/16)
    Statistics
        Read error                           : 0
        Jitter error (maybe fixed)           : 0
        Retry sector count                   : 0
        Damaged sector count                 : 0
Track 03
    Filename : /Volumes/MyBook/Franz Schubert - Symphony No. 10 and other unfinished symphonies (1997) [FLAC]/03 Symphony in D major, D708A - I. [Allegro vivace].flac
    Pre-gap length : 00:09:57
    Track gain               : -1.82 dB
    Peak                     : 0.954346
    CRC32 hash (test run)    : 7C4F50E9
    CRC32 hash               : 7C4F50E9
    CRC32 hash (skip zero)   : 402D36C7
    AccurateRip v1 signature : 2ADE5CD8
    AccurateRip v2 signature : 9A472AB6
        ->Accurately ripped (v1+v2, confidence 9+7/16)
    Statistics
        Read error                           : 0
        Jitter error (maybe fixed)           : 0
        Retry sector count                   : 0
        Damaged sector count                 : 0
Track 04
    Filename : /Volumes/MyBook/Franz Schubert - Symphony No. 10 and other unfinished symphonies (1997) [FLAC]/04 Symphony in D major, D708A - II. [Andante con moto].flac
    Pre-gap length : 00:02:58
    Track gain               : 9.54 dB
    Peak                     : 0.221863
    CRC32 hash (test run)    : 75D7E8D6
    CRC32 hash               : 75D7E8D6
    CRC32 hash (skip zero)   : 65F64351
    AccurateRip v1 signature : 772D1B0F
    AccurateRip v2 signature : BA1F730B
        ->Accurately ripped (v1+v2, confidence 9+7/16)
    Statistics
        Read error                           : 0
        Jitter error (maybe fixed)           : 0
        Retry sector count                   : 0
        Damaged sector count                 : 0
Track 05
    Filename : /Volumes/MyBook/Franz Schubert - Symphony No. 10 and other unfinished symphonies (1997) [FLAC]/05 Symphony in D major, D708A - III. [Scherzo & Trioпјљ Allegro vivace].flac
    Track gain               : 0.91 dB
    Peak                     : 0.813477
    CRC32 hash (test run)    : C59444F3
    CRC32 hash               : C59444F3
    CRC32 hash (skip zero)   : 70CFD4F2
    AccurateRip v1 signature : E3685294
    AccurateRip v2 signature : B820FA26
        ->Accurately ripped (v1+v2, confidence 9+7/16)
    Statistics
        Read error                           : 0
        Jitter error (maybe fixed)           : 0
        Retry sector count                   : 0
        Damaged sector count                 : 0
Track 06
    Filename : /Volumes/MyBook/Franz Schubert - Symphony No. 10 and other unfinished symphonies (1997) [FLAC]/06 Symphony in D major, D708A - IV. [Presto].flac
    Pre-gap length : 00:01:57
    Track gain               : 0.05 dB
    Peak                     : 0.917419
    CRC32 hash (test run)    : D4AA01D6
    CRC32 hash               : D4AA01D6
    CRC32 hash (skip zero)   : 4801D9F2
    AccurateRip v1 signature : 59507C07
    AccurateRip v2 signature : 8417F1F7
        ->Accurately ripped (v1+v2, confidence 9+7/16)
    Statistics
        Read error                           : 0
        Jitter error (maybe fixed)           : 0
        Retry sector count                   : 0
        Damaged sector count                 : 0
Track 07
    Filename : /Volumes/MyBook/Franz Schubert - Symphony No. 10 and other unfinished symphonies (1997) [FLAC]/07 Symphony No. 10 in D major, D936A - I. [Allegro maestoso].flac
    Pre-gap length : 00:09:58
    Track gain               : -2.45 dB
    Peak                     : 0.983490
    CRC32 hash (test run)    : 0A522BD8
    CRC32 hash               : 0A522BD8
    CRC32 hash (skip zero)   : 2B0FC50E
    AccurateRip v1 signature : FE9ADDF5
    AccurateRip v2 signature : 5D151B89
        ->Accurately ripped (v1+v2, confidence 9+7/16)
    Statistics
        Read error                           : 0
        Jitter error (maybe fixed)           : 0
        Retry sector count                   : 0
        Damaged sector count                 : 0
Track 08
    Filename : /Volumes/MyBook/Franz Schubert - Symphony No. 10 and other unfinished symphonies (1997) [FLAC]/08 Symphony No. 10 in D major, D936A - II. Andante.flac
    Pre-gap length : 00:02:58
    Track gain               : 2.12 dB
    Peak                     : 0.851593
    CRC32 hash (test run)    : CF1CE068
    CRC32 hash               : CF1CE068
    CRC32 hash (skip zero)   : 9D40CDC3
    AccurateRip v1 signature : F57829AC
    AccurateRip v2 signature : 3A13A1D8
        ->Accurately ripped (v1+v2, confidence 8+7/15)
    Statistics
        Read error                           : 0
        Jitter error (maybe fixed)           : 0
        Retry sector count                   : 0
        Damaged sector count                 : 0
Track 09
    Filename : /Volumes/MyBook/Franz Schubert - Symphony No. 10 and other unfinished symphonies (1997) [FLAC]/09 Symphony No. 10 in D major, D936A - III. Allegro moderato.flac
    Pre-gap length : 00:04:57
    Track gain               : 1.25 dB
    Peak                     : 0.957916
    CRC32 hash (test run)    : 95F61478
    CRC32 hash               : 95F61478
    CRC32 hash (skip zero)   : 244171CF
    AccurateRip v1 signature : D8481F6E
    AccurateRip v2 signature : 727C0327
        ->Accurately ripped (v1+v2, confidence 8+7/15)
    Statistics
        Read error                           : 0
        Jitter error (maybe fixed)           : 0
        Retry sector count                   : 0
        Damaged sector count                 : 0
No errors occurred
End of status report
-----BEGIN XLD SIGNATURE-----
bdCdkrKjWoikKGOrTnlCLctf8X0aN4.xmf.AAAwHLY1r05B14reU7z3zOXCjLd08RPxQL8uFn8HxJXLmvX4186oT_tsxhbClkVbbG8O
-----END XLD SIGNATURE-----

-

CUE

TITLE "Symphony No. 10 and other unfinished symphonies"
PERFORMER "Scottish Chamber Orchestra, Charles Mackerras"
REM GENRE "Classical"
REM DATE "1997"
REM DISCID 7B0CAD09
REM REPLAYGAIN_ALBUM_GAIN -0.04 dB
REM REPLAYGAIN_ALBUM_PEAK 0.983490
FILE "01 Symphony in D major, D615 - I. Adagio-Allegro moderato.flac" WAVE
  TRACK 01 AUDIO
    TITLE "Symphony in D major, D615 - I. Adagio-Allegro moderato"
    PERFORMER "Scottish Chamber Orchestra, Charles Mackerras"
    SONGWRITER "Franz Schubert (arr. Brian Newbould)"
    ISRC GBAJY9700001
    REM REPLAYGAIN_TRACK_GAIN 3.82 dB
    REM REPLAYGAIN_TRACK_PEAK 0.586792
    PREGAP 00:01:00
    INDEX 01 00:00:00
  TRACK 02 AUDIO
    TITLE "Symphony in D major, D615 - II. [Allegretto]"
    PERFORMER "Scottish Chamber Orchestra, Charles Mackerras"
    SONGWRITER "Franz Schubert (arr. Brian Newbould)"
    ISRC GBAJY9700002
    REM REPLAYGAIN_TRACK_GAIN 4.83 dB
    REM REPLAYGAIN_TRACK_PEAK 0.683868
    INDEX 00 03:55:42
FILE "02 Symphony in D major, D615 - II. [Allegretto].flac" WAVE
    INDEX 01 00:00:00
  TRACK 03 AUDIO
    TITLE "Symphony in D major, D708A - I. [Allegro vivace]"
    PERFORMER "Scottish Chamber Orchestra, Charles Mackerras"
    SONGWRITER "Franz Schubert (arr. Brian Newbould)"
    ISRC GBAJY9700003
    REM REPLAYGAIN_TRACK_GAIN -1.82 dB
    REM REPLAYGAIN_TRACK_PEAK 0.954346
    INDEX 00 03:03:55
FILE "03 Symphony in D major, D708A - I. [Allegro vivace].flac" WAVE
    INDEX 01 00:00:00
  TRACK 04 AUDIO
    TITLE "Symphony in D major, D708A - II. [Andante con moto]"
    PERFORMER "Scottish Chamber Orchestra, Charles Mackerras"
    SONGWRITER "Franz Schubert (arr. Brian Newbould)"
    ISRC GBAJY9700004
    REM REPLAYGAIN_TRACK_GAIN 9.54 dB
    REM REPLAYGAIN_TRACK_PEAK 0.221863
    INDEX 00 03:05:55
FILE "04 Symphony in D major, D708A - II. [Andante con moto].flac" WAVE
    INDEX 01 00:00:00
FILE "05 Symphony in D major, D708A - III. [Scherzo & Trioпјљ Allegro vivace].flac" WAVE
  TRACK 05 AUDIO
    TITLE "Symphony in D major, D708A - III. [Scherzo & Trio: Allegro vivace]"
    PERFORMER "Scottish Chamber Orchestra, Charles Mackerras"
    SONGWRITER "Franz Schubert (arr. Brian Newbould)"
    ISRC GBAJY9700005
    REM REPLAYGAIN_TRACK_GAIN 0.91 dB
    REM REPLAYGAIN_TRACK_PEAK 0.813477
    INDEX 01 00:00:00
  TRACK 06 AUDIO
    TITLE "Symphony in D major, D708A - IV. [Presto]"
    PERFORMER "Scottish Chamber Orchestra, Charles Mackerras"
    SONGWRITER "Franz Schubert (arr. Brian Newbould)"
    ISRC GBAJY9700006
    REM REPLAYGAIN_TRACK_GAIN 0.05 dB
    REM REPLAYGAIN_TRACK_PEAK 0.917419
    INDEX 00 07:51:55
FILE "06 Symphony in D major, D708A - IV. [Presto].flac" WAVE
    INDEX 01 00:00:00
  TRACK 07 AUDIO
    TITLE "Symphony No. 10 in D major, D936A - I. [Allegro maestoso]"
    PERFORMER "Scottish Chamber Orchestra, Charles Mackerras"
    SONGWRITER "Franz Schubert (arr. Brian Newbould)"
    ISRC GBAJY9700007
    REM REPLAYGAIN_TRACK_GAIN -2.45 dB
    REM REPLAYGAIN_TRACK_PEAK 0.983490
    INDEX 00 03:07:55
FILE "07 Symphony No. 10 in D major, D936A - I. [Allegro maestoso].flac" WAVE
    INDEX 01 00:00:00
  TRACK 08 AUDIO
    TITLE "Symphony No. 10 in D major, D936A - II. Andante"
    PERFORMER "Scottish Chamber Orchestra, Charles Mackerras"
    SONGWRITER "Franz Schubert (arr. Brian Newbould)"
    ISRC GBAJY9700008
    REM REPLAYGAIN_TRACK_GAIN 2.12 dB
    REM REPLAYGAIN_TRACK_PEAK 0.851593
    INDEX 00 11:14:42
FILE "08 Symphony No. 10 in D major, D936A - II. Andante.flac" WAVE
    INDEX 01 00:00:00
  TRACK 09 AUDIO
    TITLE "Symphony No. 10 in D major, D936A - III. Allegro moderato"
    PERFORMER "Scottish Chamber Orchestra, Charles Mackerras"
    SONGWRITER "Franz Schubert (arr. Brian Newbould)"
    ISRC GBAJY9700009
    REM REPLAYGAIN_TRACK_GAIN 1.25 dB
    REM REPLAYGAIN_TRACK_PEAK 0.957916
    INDEX 00 10:35:10
FILE "09 Symphony No. 10 in D major, D936A - III. Allegro moderato.flac" WAVE
    INDEX 01 00:00:00
-



Показать сообщения:    

Текущее время: 05-Дек 05:32

Часовой пояс: UTC + 3


Вы не можете начинать темы
Вы не можете отвечать на сообщения
Вы не можете редактировать свои сообщения
Вы не можете удалять свои сообщения
Вы не можете голосовать в опросах
Вы не можете прикреплять файлы к сообщениям
Вы не можете скачивать файлы