(Classical) Franz Schubert — The Complete Symphonies (АСОЛФ, Александр Дмитриев) — 2005 – 2006, APE (image+.cue) lossless


 

[Цитировать]

The Complete Symphonies-
Жанр: Classical
Страны-производители дисков: Россия / Укриана
Годы издания дисков: 2005 (CD 1-3), 2006 (CD 4)
Годы записи фонограмм: 1980 (CD 4), 1982 (CD 3), 1984 (CD 2), 1985 (CD 1)
Издатель (лейбл): Мелодия / Мелодия Украина
Номера по каталогу: MEL CD 1001017 / MEL CD 1001018 / MEL CD 1001019 / MEL CD 1001020
Композитор: Franz Peter Schubert
Исполнительский коллектив: Академический симфонический оркестр Ленинградской филармонии, дир. Александр Дмитриев
Аудио кодек: ape
Тип рипа: image+.cue
Битрейт аудио: lossless
Продолжительность: 03h59'41"
Источник: intoclassics
Наличие сканов в содержимом раздачи: да-

Треклист

CD 1 – 00h54'19"
Symphony № 1 D-Dur D 82
01. I. Adagio – Allegro vivace [00h08'53"]
02. II. Andante [00h07'22"]
03. III. Menuetto – Allegretto [00h05'21"]
04. IV. Allegro vivace [00h06'00"]
Symphony № 2 B-Dur D 125
05. I. Largo – Allegro vivace [00h09'59"]
06. II. Andante [00h07'22"]
07. III. Menuetto – Allegro vivace – Trio [00h03'47"]
08. IV. Presto vivace [00h05'33"]-

CUE

REM GENRE Classical
REM DATE 2005
PERFORMER "Schubert"
TITLE "Symphonies 1 & 2"
FILE "Symphonies 1 & 2.ape" WAVE
  TRACK 01 AUDIO
    TITLE "Symphony № 1 D-Dur D 82 – I. Adagio – Allegro vivace"
    INDEX 01 00:00:00
  TRACK 02 AUDIO
    TITLE "Symphony № 1 D-Dur D 82 – II. Andante"
    INDEX 01 08:53:22
  TRACK 03 AUDIO
    TITLE "Symphony № 1 D-Dur D 82 – III. Menuetto – Allegretto"
    INDEX 01 16:15:55
  TRACK 04 AUDIO
    TITLE "Symphony № 1 D-Dur D 82 – IV. Allegro vivace"
    INDEX 01 21:37:10
  TRACK 05 AUDIO
    TITLE "Symphony № 2 B-Dur D 125 – I. Largo – Allegro vivace"
    INDEX 01 27:37:41
  TRACK 06 AUDIO
    TITLE "Symphony № 2 B-Dur D 125 – II. Andante"
    INDEX 01 37:36:36
  TRACK 07 AUDIO
    TITLE "Symphony № 2 B-Dur D 125 – III. Menuetto – Allegro vivace – Trio"
    INDEX 01 44:58:35
  TRACK 08 AUDIO
    TITLE "Symphony № 2 B-Dur D 125 – IV. Presto vivace"
    INDEX 01 48:45:55
-CD 2 – 00h54'55"
Symphony № 3 D-Dur D 200
01. I. Adagio maestoso – Allegro con brio [00h09'59"]
02. II. Allegretto [00h04'36"]
03. III. Menuetto – Vivace – Trio [00h04'39"]
04. IV. Presto vivace [00h06'23"]
Symphony № 4 c-moll D 417 «Tragische»
05. I. Adagio molto – Allegro vivace [00h10'20"]
06. II. Andante [00h07'45"]
07. III. Menuetto – Allegro vivace – Trio [00h03'09"]
08. IV. Allegro [00h08'06"]-

CUE

REM GENRE Classical
REM DATE 2005
PERFORMER "Schubert"
TITLE "Symphonies 3 & 4"
FILE "Symphonies 3 & 4.ape" WAVE
  TRACK 01 AUDIO
    TITLE "Symphony № 3 D-Dur D 200 – I. Adagio maestoso – Allegro con brio"
    INDEX 01 00:00:00
  TRACK 02 AUDIO
    TITLE "Symphony № 3 D-Dur D 200 – II. Allegretto"
    INDEX 01 09:58:60
  TRACK 03 AUDIO
    TITLE "Symphony № 3 D-Dur D 200 – III. Menuetto – Vivace – Trio"
    INDEX 01 14:34:36
  TRACK 04 AUDIO
    TITLE "Symphony № 3 D-Dur D 200 – IV. Presto vivace"
    INDEX 01 19:13:16
  TRACK 05 AUDIO
    TITLE "Symphony № 4 c-moll D 417 «Tragische» – I. Adagio molto – Allegro vivace"
    INDEX 01 25:36:19
  TRACK 06 AUDIO
    TITLE "Symphony № 4 c-moll D 417 «Tragische» – II. Andante"
    INDEX 01 35:55:58
  TRACK 07 AUDIO
    TITLE "Symphony № 4 c-moll D 417 «Tragische» – III. Menuetto – Allegro vivace – Trio"
    INDEX 01 43:40:48
  TRACK 08 AUDIO
    TITLE "Symphony № 4 c-moll D 417 «Tragische» – IV. Allegro"
    INDEX 01 46:49:49
-CD 3 – 00h57'21"
Symphony № 5 B-Dur D 485
01. I. Allegro [00h07'16"]
02. II. Andante con moto [00h09'56"]
03. III. Menuetto – Allegro molto [00h04'52"]
04. IV. Allegro vivace [00h05'31"]
Symphony № 6 C-Dur D 589
05. I. Adagio – Allegretto [00h07'31"]
06. II. Andante [00h06'36"]
07. III. Scherzo – Presto [00h06'33"]
08. IV. Allegro moderato [00h09'08"]-

CUE

REM GENRE Classical
REM DATE 2005
PERFORMER "Schubert"
TITLE "Symphonies 5 & 6"
FILE "Symphonies 5 & 6.ape" WAVE
  TRACK 01 AUDIO
    TITLE "Symphony № 5 B-Dur D 485 – I. Allegro"
    INDEX 01 00:00:00
  TRACK 02 AUDIO
    TITLE "Symphony № 5 B-Dur D 485 – II. Andante con moto"
    INDEX 01 07:15:50
  TRACK 03 AUDIO
    TITLE "Symphony № 5 B-Dur D 485 – III. Menuetto – Allegro molto"
    INDEX 01 17:11:40
  TRACK 04 AUDIO
    TITLE "Symphony № 5 B-Dur D 485 – IV. Allegro vivace"
    INDEX 01 22:03:10
  TRACK 05 AUDIO
    TITLE "Symphony № 6 C-Dur D 589 – I. Adagio – Allegretto"
    INDEX 01 27:33:57
  TRACK 06 AUDIO
    TITLE "Symphony № 6 C-Dur D 589 – II. Andante"
    INDEX 01 35:04:22
  TRACK 07 AUDIO
    TITLE "Symphony № 6 C-Dur D 589 – III. Scherzo – Presto"
    INDEX 01 41:40:50
  TRACK 08 AUDIO
    TITLE "Symphony № 6 C-Dur D 589 – IV. Allegro moderato"
    INDEX 01 48:13:20
-CD 4 – 01h13'06"
Symphony № 9 C-Dur D 944 «Grosse»
01. I. Andante – Allegro ma non troppo [00h13'16"]
02. II. Andante con moto [00h14'48"]
03. III. Scherzo – Allegro vivace [00h09'29"]
04. IV. Allegro vivace [00h10'51"]
Symphony № 8 h-moll D 759 «Unvollendete»
05. I. Allegro moderato [00h14'06"]
06. II. Andante con moto [00h10'37"]-

CUE

REM GENRE Classical
REM DATE 2006
PERFORMER "Schubert"
TITLE "Symphonies 8 & 9"
FILE "Symphonies 8 & 9.ape" WAVE
  TRACK 01 AUDIO
    TITLE "Symphony № 9 C-Dur D 944 «Grosse» – I. Andante – Allegro ma non troppo"
    INDEX 01 00:00:00
  TRACK 02 AUDIO
    TITLE "Symphony № 9 C-Dur D 944 «Grosse» – II. Andante con moto"
    INDEX 01 13:16:12
  TRACK 03 AUDIO
    TITLE "Symphony № 9 C-Dur D 944 «Grosse» – III. Scherzo – Allegro vivace"
    INDEX 01 28:03:54
  TRACK 04 AUDIO
    TITLE "Symphony № 9 C-Dur D 944 «Grosse» – IV. Allegro vivace"
    INDEX 01 37:32:37
  TRACK 05 AUDIO
    TITLE "Symphony № 8 h-moll D 759 «Unvollendete» – I. Allegro moderato"
    INDEX 01 48:23:34
  TRACK 06 AUDIO
    TITLE "Symphony № 8 h-moll D 759 «Unvollendete» – II. Andante con moto"
    INDEX 01 62:29:10

-

-

auCDtect log

-----------------------
DON'T MODIFY THIS FILE
-----------------------
PERFORMER: auCDtect Task Manager, ver. 1.5.1RC4 build 1.5.1.5
Copyright (c) 2008-2010 y-soft. All rights reserved
http://y-soft.org
ANALYZER: auCDtect: CD records authenticity detector, version 0.8.2
Copyright (c) 2004 Oleg Berngardt. All rights reserved.
Copyright (c) 2004 Alexander Djourik. All rights reserved.
FILE: Symphonies 8 & 9.wav
  Size: 773666924 Hash: 69B14851A1AC1118727E4F8E2F6A9CB7 Accuracy: -m0
  Conclusion: CDDA 100%
  Signature: B86EA16C079F9132FA5C93EC31E9B2F157BA0198
FILE: Symphonies 5 & 6.wav
  Size: 607020668 Hash: 4E7C3622A5C817B08F7EC705B35555BF Accuracy: -m0
  Conclusion: CDDA 87%
  Signature: F38DE5AC22A30D2924ADC96AE58E592D6C0811ED
FILE: Symphonies 3 & 4.wav
  Size: 581280380 Hash: 9D6028E5C238701E1AED06CE80C6C159 Accuracy: -m0
  Conclusion: CDDA 100%
  Signature: 37E353177E0611BEDC4B92B7E3B85020D8409C78
FILE: Symphonies 1 & 2.wav
  Size: 574819436 Hash: EB7FF72D86A323B18BB53E44D0614319 Accuracy: -m0
  Conclusion: CDDA 86%
  Signature: 35491DC569A654C556D572CC3D5C8898473C304E

-

Срез частот

-



Показать сообщения:    

Текущее время: 03-Дек 12:40

Часовой пояс: UTC + 3


Вы не можете начинать темы
Вы не можете отвечать на сообщения
Вы не можете редактировать свои сообщения
Вы не можете удалять свои сообщения
Вы не можете голосовать в опросах
Вы не можете прикреплять файлы к сообщениям
Вы не можете скачивать файлы