(classical) Aulis Sallinen - Symphony No. 6; Cello Concerto (Ari Rasilainen) - 2009, FLAC (image+.cue) lossless


 

[Цитировать]

Aulis Sallinen - Symphony No. 6; Cello Concerto (Ari Rasilainen)
Жанр: classical
Страна-производитель диска: Germany
Год издания диска: 2009
Издатель (лейбл): CPO
Аудиокодек: FLAC
Тип рипа: image+.cue
Битрейт аудио: lossless
Источник: скачано с
Треклист:
Symphony No. 6, Op. 65, "From a New Zealand Diary"
1. I. The Islands of the Sounds. The sounds of the islands 10:31
2. II. Air. Rain 8:08
3. III. Kyeburn Diggings 10:22
4. IV. Finale, "Simply by sailing in a new direction / You could enlarge the world" (Allen Curnow) 10:32
Cello Concerto, Op. 44
5. I. OSA 20:23
6. II. Allegro - Presto - Prestissimo 5:30
Исполнители:
Gustafsson, Jan-Erik-cello
Norrkoping Symphony Orchestra-Orchestra
Rasilainen, Ari-Conductor

Лог создания рипа

Exact Audio Copy V1.0 beta 3 from 29. August 2011
Отчёт EAC об извлечении, выполненном 30. сентября 2013, 14:58
Ari Rasilainen / Sallinen: Symphony No. 6; Cello Concerto
Дисковод: TSSTcorpCDDVDW SH-224DB Adapter: 0 ID: 0
Режим чтения : ДостоверностьИспользование точного потока : ДаОтключение кэша аудио : НетИспользование указателей C2 : Нет
Коррекция смещения при чтении : 6Способность читать области Lead-in и Lead-out : НетЗаполнение пропущенных сэмплов тишиной : ДаУдаление блоков с тишиной в начале и конце : НетПри вычислениях CRC использовались нулевые сэмплы : ДаИнтерфейс : Встроенный Win32-интерфейс для Win NT/2000
Выходной формат : Пользовательский кодировщикВыбранный битрейт : 128 kBit/sКачество : ВысокийДобавление ID3-тега : НетУтилита сжатия : C:\Program Files (x86)\Exact Audio Copy\Flac\flac.exeДополнительные параметры : -V -8 -T "Date=%year%" -T "Genre=%genre%" %source%
TOC извлечённого CD
Трек | Старт | Длительность | Начальный сектор | Конечный сектор --------------------------------------------------------------------- 1 | 0:00.00 | 10:31.27 | 0 | 47351 2 | 10:31.27 | 8:08.48 | 47352 | 83999 3 | 18:40.00 | 10:22.24 | 84000 | 130673 4 | 29:02.24 | 10:44.51 | 130674 | 179024 5 | 39:47.00 | 20:23.00 | 179025 | 270749 6 | 60:10.00 | 5:30.00 | 270750 | 295499
Характеристики диапазона извлечения и сообщения об ошибках
Выбранный диапазон
Имя файла C:\Users\Игорь\Music\EAC\salCel\Ari Rasilainen - Sallinen- Symphony No. 6; Cello Concerto.wav
Пиковый уровень 98.8 % Скорость извлечения 11.6 X Качество диапазона 100.0 % CRC копии C1CFB144 Копирование... OK
Ошибок не произошло
AccurateRip: сводка
Трек 1 : извлечено точно (доверие 2) [28BC95BF] (AR v2)Трек 2 : извлечено точно (доверие 2) [56815DB0] (AR v2)Трек 3 : извлечено точно (доверие 2) [9D27290D] (AR v2)Трек 4 : извлечено точно (доверие 2) [63B6897D] (AR v2)Трек 5 : извлечено точно (доверие 2) [55B0E689] (AR v2)Трек 6 : извлечено точно (доверие 2) [FDD11303] (AR v2)
Все треки извлечены точно
Конец отчёта
==== Контрольная сумма отчёта 9A4ACECD9920998930F89A71E357073C704E3FF530AA09907AE10070D5A38FB4 ====

Содержание индексной карты (.CUE)

REM GENRE ClassicalREM DATE 2009REM DISCID 460F6406REM COMMENT "ExactAudioCopy v1.0b3"PERFORMER "Ari Rasilainen"TITLE "Sallinen: Symphony No. 6; Cello Concerto"FILE "Ari Rasilainen - Sallinen- Symphony No. 6; Cello Concerto.flac" WAVE TRACK 01 AUDIO TITLE "Symphony No. 6, Op 65 'From a New Zealand Diary': 1. The Islands of the sounds" PERFORMER "Ari Rasilainen" INDEX 01 00:00:00 TRACK 02 AUDIO TITLE "Symphony No. 6, Op 65 'From a New Zealand Diary': 2. Air. Rain" PERFORMER "Ari Rasilainen" INDEX 01 10:31:27 TRACK 03 AUDIO TITLE "Symphony No. 6, Op 65 'From a New Zealand Diary': 3. Kyeburn Diggings" PERFORMER "Ari Rasilainen" INDEX 01 18:40:00 TRACK 04 AUDIO TITLE "Symphony No. 6, Op 65 'From a New Zealand Diary': 4. Finale 'Simply by Sailing'" PERFORMER "Ari Rasilainen" INDEX 01 29:02:24 TRACK 05 AUDIO TITLE "Concerto for cello, Op. 44: 1. OSA" PERFORMER "Ari Rasilainen" INDEX 00 39:34:63 INDEX 01 39:47:00 TRACK 06 AUDIO TITLE "Concerto for cello, Op. 44: 2. Allegro - Presto - Prestissimo" PERFORMER "Ari Rasilainen" INDEX 01 60:10:00



Показать сообщения:    

Текущее время: 03-Дек 16:46

Часовой пояс: UTC + 3


Вы не можете начинать темы
Вы не можете отвечать на сообщения
Вы не можете редактировать свои сообщения
Вы не можете удалять свои сообщения
Вы не можете голосовать в опросах
Вы не можете прикреплять файлы к сообщениям
Вы не можете скачивать файлы