(classical) Aulis Sallinen - Symphonies 3 and 5 (Ari Rasilainen) - 2008, FLAC (tracks+.cue) lossless


 

[Цитировать]

Aulis Sallinen - Symphonies 3 and 5
Жанр: classical
Страна-производитель диска: Germany
Год издания диска: 2008
Издатель (лейбл): CPO
Аудиокодек: FLAC
Тип рипа: tracks+.cue
Битрейт аудио: lossless
Источник: скачано с
Наличие сканов в содержимом раздачи: да
Треклист:
Symphony No. 3, Op. 35
1. I. Il tempo energico e sostenuto 7:36
2. II. Chaconne 7:15
3. III. Vivace - Giocoso - Finale 9:30
Symphony No. 5, Op. 57 , ''Washington Mosaics''
4. I. Washington Mosaics I 12:10
5. II. Intermezzo I 5:14
6. III. Intermezzo II 4:56
7. IV. Intermezzo III - 7:35
8. V. Washington Mosaics II 8:22
Исполнители:
Rheinland-Pfalz State Philharmonic Orchestra-Orchestra
Rasilainen, Ari-Conductor

Лог создания рипа

Exact Audio Copy V1.0 beta 3 from 29. August 2011
EAC extraction logfile from 29. July 2015, 1:09
Sallinen, Aulis / Symphonies No.3 & 5
Used drive : TSSTcorpCDDVDW SH-S223C Adapter: 0 ID: 1
Read mode : SecureUtilize accurate stream : YesDefeat audio cache : YesMake use of C2 pointers : No
Read offset correction : 697Overread into Lead-In and Lead-Out : NoFill up missing offset samples with silence : YesDelete leading and trailing silent blocks : NoNull samples used in CRC calculations : YesUsed interface : Native Win32 interface for Win NT & 2000Gap handling : Appended to previous track
Used output format : User Defined EncoderSelected bitrate : 1024 kBit/sQuality : HighAdd ID3 tag : NoCommand line compressor : C:\Program Files (x86)\Exact Audio Copy\FLAC\FLAC.EXEAdditional command line options : -V -0 -T "Comment=Ripped by Tapaz9/Johnston" -T "artist=%artist%" -T "title=%title%" -T "album=%albumtitle%" -T "date=%year%" -T "tracknumber=%tracknr%" -T "genre=%genre%" %source%
TOC of the extracted CD
Track | Start | Length | Start sector | End sector --------------------------------------------------------- 1 | 0:00.00 | 7:36.00 | 0 | 34199 2 | 7:36.00 | 7:15.00 | 34200 | 66824 3 | 14:51.00 | 9:30.00 | 66825 | 109574 4 | 24:21.00 | 12:10.00 | 109575 | 164324 5 | 36:31.00 | 5:14.00 | 164325 | 187874 6 | 41:45.00 | 4:56.00 | 187875 | 210074 7 | 46:41.00 | 7:35.00 | 210075 | 244199 8 | 54:16.00 | 8:22.00 | 244200 | 281849
Track 1
Filename F:\Musique\Sallinen, Aulis\Sallinen_Symphonies3and5\01 - Sallinen, Aulis - Sinfonie Nr.3 Op.35 (1974-1975) - 1.Satz- Tempo energico ed sostenuto.wav
Pre-gap length 0:00:02.00
Peak level 87.8 % Extraction speed 12.4 X Track quality 100.0 % Copy CRC DE5BB9F2 Copy OK
Track 2
Filename F:\Musique\Sallinen, Aulis\Sallinen_Symphonies3and5\02 - Sallinen, Aulis - Sinfonie Nr.3 Op.35 (1974-1975) - 2.Satz- Chaconne.wav
Peak level 66.1 % Extraction speed 12.9 X Track quality 100.0 % Copy CRC 08F710B3 Copy OK
Track 3
Filename F:\Musique\Sallinen, Aulis\Sallinen_Symphonies3and5\03 - Sallinen, Aulis - Sinfonie Nr.3 Op.35 (1974-1975) - 3.Satz- Vivace giacoso, Finale.wav
Peak level 97.7 % Extraction speed 14.2 X Track quality 100.0 % Copy CRC B24D4B44 Copy OK
Track 4
Filename F:\Musique\Sallinen, Aulis\Sallinen_Symphonies3and5\04 - Sallinen, Aulis - Sinfonie Nr.5 'Washington Mosaics' Op.57 (1984-1985) - 1.Satz- Washington Mosaics I.wav
Peak level 97.7 % Extraction speed 12.3 X Track quality 100.0 % Copy CRC AF1B16E1 Copy OK
Track 5
Filename F:\Musique\Sallinen, Aulis\Sallinen_Symphonies3and5\05 - Sallinen, Aulis - Sinfonie Nr.5 'Washington Mosaics' Op.57 (1984-1985) - 2.Satz- Intermezzo I.wav
Peak level 77.3 % Extraction speed 11.8 X Track quality 100.0 % Copy CRC 523B06D4 Copy OK
Track 6
Filename F:\Musique\Sallinen, Aulis\Sallinen_Symphonies3and5\06 - Sallinen, Aulis - Sinfonie Nr.5 'Washington Mosaics' Op.57 (1984-1985) - 3.Satz- Intermezzo II.wav
Peak level 23.6 % Extraction speed 12.2 X Track quality 100.0 % Copy CRC 8553E407 Copy OK
Track 7
Filename F:\Musique\Sallinen, Aulis\Sallinen_Symphonies3and5\07 - Sallinen, Aulis - Sinfonie Nr.5 'Washington Mosaics' Op.57 (1984-1985) - 4.Satz- Intermezzo III.wav
Peak level 50.2 % Extraction speed 12.1 X Track quality 100.0 % Copy CRC FEAC5F83 Copy OK
Track 8
Filename F:\Musique\Sallinen, Aulis\Sallinen_Symphonies3and5\08 - Sallinen, Aulis - Sinfonie Nr.5 'Washington Mosaics' Op.57 (1984-1985) - 5.Satz- Washington Mosaics II.wav
Peak level 97.7 % Extraction speed 11.6 X Track quality 99.9 % Copy CRC BBFBF941 Copy OK
No errors occurred
End of status report
==== Log checksum 58373B7E271B65C67038D1284A7BA40914CC74BE531FA3ECA7F97193645263C4 ====

Содержание индексной карты (.CUE)

REM GENRE ClassicalREM DATE 2008REM DISCID 710EAE08REM COMMENT "ExactAudioCopy v1.0b3"FILE "01 - Sallinen, Aulis - Sinfonie Nr.3 Op.35 (1974-1975) - 1.Satz- Tempo energico ed sostenuto.wav" WAVE TRACK 01 AUDIO INDEX 01 00:00:00FILE "02 - Sallinen, Aulis - Sinfonie Nr.3 Op.35 (1974-1975) - 2.Satz- Chaconne.wav" WAVE TRACK 02 AUDIO INDEX 01 00:00:00FILE "03 - Sallinen, Aulis - Sinfonie Nr.3 Op.35 (1974-1975) - 3.Satz- Vivace giacoso, Finale.wav" WAVE TRACK 03 AUDIO INDEX 01 00:00:00FILE "04 - Sallinen, Aulis - Sinfonie Nr.5 'Washington Mosaics' Op.57 (1984-1985) - 1.Satz- Washington Mosaics I.wav" WAVE TRACK 04 AUDIO INDEX 01 00:00:00FILE "05 - Sallinen, Aulis - Sinfonie Nr.5 'Washington Mosaics' Op.57 (1984-1985) - 2.Satz- Intermezzo I.wav" WAVE TRACK 05 AUDIO INDEX 01 00:00:00FILE "06 - Sallinen, Aulis - Sinfonie Nr.5 'Washington Mosaics' Op.57 (1984-1985) - 3.Satz- Intermezzo II.wav" WAVE TRACK 06 AUDIO INDEX 01 00:00:00FILE "07 - Sallinen, Aulis - Sinfonie Nr.5 'Washington Mosaics' Op.57 (1984-1985) - 4.Satz- Intermezzo III.wav" WAVE TRACK 07 AUDIO INDEX 01 00:00:00FILE "08 - Sallinen, Aulis - Sinfonie Nr.5 'Washington Mosaics' Op.57 (1984-1985) - 5.Satz- Washington Mosaics II.wav" WAVE TRACK 08 AUDIO INDEX 01 00:00:00



Показать сообщения:    

Текущее время: 08-Дек 21:13

Часовой пояс: UTC + 3


Вы не можете начинать темы
Вы не можете отвечать на сообщения
Вы не можете редактировать свои сообщения
Вы не можете удалять свои сообщения
Вы не можете голосовать в опросах
Вы не можете прикреплять файлы к сообщениям
Вы не можете скачивать файлы