(classical) Aulis Sallinen - Symphonies Nos. 2 and 4 (Ari Rasilainen) - 2005, APE (image+.cue) lossless


 

[Цитировать]

Aulis Sallinen - Symphonies Nos. 2 and 4 (Ari Rasilainen)
Жанр: classical
Страна-производитель диска: Germany
Год издания диска: 2005
Издатель (лейбл): CPO
Аудиокодек: APE
Тип рипа: image+.cue
Битрейт аудио: lossless
Источник: скачано с
Наличие сканов в содержимом раздачи: да
Треклист:
Symphony No. 4, Op. 49
1. I. Andante poco giocoso 6:16
2. II. Dona nobis pacem 7:00
3. III. Finale 9:49
4. Symphony No. 2, Op. 29, "Symphonic Dialogue" 16:35
Horn Concerto, Op. 82, "Campane ed Arie"
5. Part I 11:27
6. Part II 9:56
7. Mauermusik, Op. 7 9:48
Исполнители:
Tapani, Esa-horn
Orraryd, Martin-percussion
Norrkoping Symphony Orchestra-Orchestra
Rasilainen, Ari-Conductor

Лог создания рипа

Exact Audio Copy V0.99 prebeta 4 from 23. January 2008
EAC extraction logfile from 19. May 2009, 21:16
Unknown Artist / Unknown Title
Used drive : CD-ROM 52X-B0 Adapter: 1 ID: 1
Read mode : Burst
Read offset correction : 0Overread into Lead-In and Lead-Out : NoFill up missing offset samples with silence : YesDelete leading and trailing silent blocks : NoNull samples used in CRC calculations : NoUsed interface : Installed external ASPI interface
Used output format : Monkey's Audio Lossless Encoder v3.99 DLLSample format : High Lossless Compression
TOC of the extracted CD
Track | Start | Length | Start sector | End sector --------------------------------------------------------- 1 | 0:00.00 | 6:15.74 | 0 | 28198 2 | 6:15.74 | 7:00.38 | 28199 | 59736 3 | 13:16.37 | 9:49.37 | 59737 | 103948 4 | 23:05.74 | 16:35.00 | 103949 | 178573 5 | 39:40.74 | 11:27.00 | 178574 | 230098 6 | 51:07.74 | 9:56.00 | 230099 | 274798 7 | 61:03.74 | 9:48.00 | 274799 | 318898
Range status and errors
Selected range
Filename C:\RIPPED KULLERVO\sallinen 2 4\Unknown Artist - Unknown Title.ape
Peak level 98.9 % Copy CRC DB1CD9DC Copy OK
No errors occurred
End of status report

Содержание индексной карты (.CUE)

REM DISCID 73109B07REM COMMENT "ExactAudioCopy v0.99pb4"PERFORMER "Unknown Artist"TITLE "Unknown Title"FILE "Unknown Artist - Unknown Title.ape" WAVE TRACK 01 AUDIO TITLE "Track01" PERFORMER "Unknown Artist" FLAGS DCP INDEX 01 00:00:00 TRACK 02 AUDIO TITLE "Track02" PERFORMER "Unknown Artist" FLAGS DCP INDEX 01 06:15:74 TRACK 03 AUDIO TITLE "Track03" PERFORMER "Unknown Artist" FLAGS DCP INDEX 01 13:16:37 TRACK 04 AUDIO TITLE "Track04" PERFORMER "Unknown Artist" FLAGS DCP INDEX 00 22:38:00 INDEX 01 23:05:74 TRACK 05 AUDIO TITLE "Track05" PERFORMER "Unknown Artist" FLAGS DCP INDEX 00 39:16:00 INDEX 01 39:40:74 TRACK 06 AUDIO TITLE "Track06" PERFORMER "Unknown Artist" FLAGS DCP INDEX 01 51:07:74 TRACK 07 AUDIO TITLE "Track07" PERFORMER "Unknown Artist" FLAGS DCP INDEX 00 60:39:00 INDEX 01 61:03:74



Показать сообщения:    

Текущее время: 09-Дек 01:09

Часовой пояс: UTC + 3


Вы не можете начинать темы
Вы не можете отвечать на сообщения
Вы не можете редактировать свои сообщения
Вы не можете удалять свои сообщения
Вы не можете голосовать в опросах
Вы не можете прикреплять файлы к сообщениям
Вы не можете скачивать файлы