(classical) Aulis Sallinen - Symphony No. 8, Violin Concerto, Op. 18 (Jaakko Kuusisto, Ari Rasilainen) - 2005, FLAC (tracks+.cue) lossless


 

[Цитировать]

Aulis Sallinen - Symphony No. 8, Violin Concerto, Op. 18 (Jaakko Kuusisto, Ari Rasilainen)
Жанр: classical
Страна-производитель диска: Germany
Год издания диска: 2005
Издатель (лейбл): CPO
Аудиокодек: FLAC
Тип рипа: tracks+.cue
Битрейт аудио: lossless
Источник: скачано с
Наличие сканов в содержимом раздачи: да
Треклист:
1. Shadows, Op. 52 8:48
2. Symphony No. 8, Op. 81, "Autumnal Fragments" 24:02
Violin Concerto, Op. 18
3. I. Andante sostenuto 8:37
4. II. Larghetto 5:17
5. III. Allegro giocoso 4:09
6. The Palace Rhapsody, Op. 72 16:56
Исполнители:
Kuusisto, Jaakko-violin
Rheinland-Pfalz State Philharmonic Orchestra-Orchestra
Rasilainen, Ari-Conductor

Лог создания рипа

Exact Audio Copy V1.0 beta 3 from 29. August 2011
EAC extraction logfile from 30. July 2015, 19:59
Sallinen, Aulis / Symphony No. 8 - Violin Concerto - Kuusisto - Rheiland-Pfalz SPO - Rasilainen
Used drive : TSSTcorpCDDVDW SH-S223C Adapter: 0 ID: 1
Read mode : SecureUtilize accurate stream : YesDefeat audio cache : YesMake use of C2 pointers : No
Read offset correction : 697Overread into Lead-In and Lead-Out : NoFill up missing offset samples with silence : YesDelete leading and trailing silent blocks : NoNull samples used in CRC calculations : YesUsed interface : Native Win32 interface for Win NT & 2000Gap handling : Appended to previous track
Used output format : User Defined EncoderSelected bitrate : 1024 kBit/sQuality : HighAdd ID3 tag : NoCommand line compressor : C:\Program Files (x86)\Exact Audio Copy\FLAC\FLAC.EXEAdditional command line options : -V -0 -T "Comment=Ripped by Tapaz9/Johnston" -T "artist=%artist%" -T "title=%title%" -T "album=%albumtitle%" -T "date=%year%" -T "tracknumber=%tracknr%" -T "genre=%genre%" %source%
TOC of the extracted CD
Track | Start | Length | Start sector | End sector --------------------------------------------------------- 1 | 0:00.00 | 8:48.00 | 0 | 39599 2 | 8:48.00 | 24:02.00 | 39600 | 147749 3 | 32:50.00 | 8:37.00 | 147750 | 186524 4 | 41:27.00 | 5:17.39 | 186525 | 210338 5 | 46:44.39 | 4:09.36 | 210339 | 229049 6 | 50:54.00 | 16:56.00 | 229050 | 305249
Track 1
Filename F:\Musique\Sallinen, Aulis\Sallinen_Symphony8\01 - Shadows, Op. 52.wav
Pre-gap length 0:00:02.00
Peak level 99.7 % Extraction speed 12.0 X Track quality 100.0 % Copy CRC 309F1B9C Copy OK
Track 2
Filename F:\Musique\Sallinen, Aulis\Sallinen_Symphony8\02 - Symphony No. 8, Op. 81, 'Autumnal Fragments'.wav
Peak level 99.5 % Extraction speed 11.5 X Track quality 100.0 % Copy CRC 40D06D23 Copy OK
Track 3
Filename F:\Musique\Sallinen, Aulis\Sallinen_Symphony8\03 - Violin Concerto, Op. 18- I - Andante sostenuto.wav
Peak level 70.7 % Extraction speed 12.2 X Track quality 100.0 % Copy CRC 6D50C7DB Copy OK
Track 4
Filename F:\Musique\Sallinen, Aulis\Sallinen_Symphony8\04 - Violin Concerto, Op. 18- II - Larghetto.wav
Peak level 99.4 % Extraction speed 12.3 X Track quality 100.0 % Copy CRC DA26D091 Copy OK
Track 5
Filename F:\Musique\Sallinen, Aulis\Sallinen_Symphony8\05 - Violin Concerto, Op. 18- III - Allegro giocoso.wav
Peak level 99.6 % Extraction speed 11.6 X Track quality 100.0 % Copy CRC 17044BD3 Copy OK
Track 6
Filename F:\Musique\Sallinen, Aulis\Sallinen_Symphony8\06 - The Palace Rhapsody, Op. 72.wav
Peak level 99.7 % Extraction speed 13.0 X Track quality 100.0 % Copy CRC C66EDF72 Copy OK
No errors occurred
End of status report
==== Log checksum C47AB06AB7DD9C67C0FB242AF0880C72C95E3EDE177A254481740A0E5D94B9F7 ====

Содержание индексной карты (.CUE)

REM GENRE ClassicalREM DATE 2005REM DISCID 520FE606REM COMMENT "ExactAudioCopy v1.0b3"FILE "01 - Shadows, Op. 52.wav" WAVE TRACK 01 AUDIO INDEX 01 00:00:00FILE "02 - Symphony No. 8, Op. 81, 'Autumnal Fragments'.wav" WAVE TRACK 02 AUDIO INDEX 01 00:00:00FILE "03 - Violin Concerto, Op. 18- I - Andante sostenuto.wav" WAVE TRACK 03 AUDIO INDEX 01 00:00:00FILE "04 - Violin Concerto, Op. 18- II - Larghetto.wav" WAVE TRACK 04 AUDIO INDEX 01 00:00:00FILE "05 - Violin Concerto, Op. 18- III - Allegro giocoso.wav" WAVE TRACK 05 AUDIO INDEX 01 00:00:00FILE "06 - The Palace Rhapsody, Op. 72.wav" WAVE TRACK 06 AUDIO INDEX 01 00:00:00



Показать сообщения:    

Текущее время: 09-Дек 18:34

Часовой пояс: UTC + 3


Вы не можете начинать темы
Вы не можете отвечать на сообщения
Вы не можете редактировать свои сообщения
Вы не можете удалять свои сообщения
Вы не можете голосовать в опросах
Вы не можете прикреплять файлы к сообщениям
Вы не можете скачивать файлы