(Concerto, Baroque) Georg Philipp Telemann - Double and Triple Concertos (The Academy of Ancient Music, Christopher Hogwood) - 1984, FLAC (image+.cue) lossless


 

[Цитировать]

Georg Philipp Telemann - Double and Triple Concertos
The Academy of Ancient Music | Christopher Hogwood
Жанр: Concerto, Baroque
Страна-производитель диска: Germany
Год издания диска: 1984
Издатель (лейбл): Decca | L'Oiseau-Lyre
Номер по каталогу: 478 0022
Дата записи: 1981
Аудиокодек: FLAC
Тип рипа: image+.cue
Битрейт аудио: lossless
Продолжительность: 53:30
Источник: скачано с odeonmusic
Наличие сканов в содержимом раздачи: да
Треклист:
Concerto In D Major For 3 Trumpets
1 I. Largo 1:59
2 II. Allegro 2:56
3 III. Adagio 2:07
4 IV. Presto 1:51
Quadro In B Flat Major
5 I. Spiritoso 2:44
6 II. Grave 1:51
7 III. Allegro 1:36
Concerto In E Minor For Recorder & Flute
8 I. Largo 3:52
9 II. Allegro 4:20
10 III. Largo 3:10
11 IV. Presto 2:35
Concerto Polonois
12 I. Dolce - Allegro 4:29
13 II. Largo 2:08
14 III. Allegro 1:41
Concerto For Flute, Oboe D'Amore & Viola D'Amore In E Major
15 I. Andante 3:08
16 II. Allegro 5:25
17 III. Siciliano 3:11
18 IV. Vivace 4:00
Исполнители:
The Academy of Ancient Music
Christopher Hogwood
- conductor

Лог создания рипа

Exact Audio Copy V1.0 beta 3 from 29. August 2011
EAC extraction logfile from 31. March 2012, 11:23
Christopher Hogwood / Telemann - Double and Triple Concertos - Hogwood
Used drive : HL-DT-STDVDRAM GSA-H10A Adapter: 0 ID: 0
Read mode : SecureUtilize accurate stream : YesDefeat audio cache : YesMake use of C2 pointers : No
Read offset correction : 667Overread into Lead-In and Lead-Out : NoFill up missing offset samples with silence : YesDelete leading and trailing silent blocks : NoNull samples used in CRC calculations : YesUsed interface : Native Win32 interface for Win NT & 2000
Used output format : User Defined EncoderSelected bitrate : 1024 kBit/sQuality : HighAdd ID3 tag : NoCommand line compressor : C:\Program Files\Exact Audio Copy\Flac\flac.exeAdditional command line options : -8 -V -T "TITLE=%title%" -T "ARTIST=%artist%" -T "ALBUMARTIST=%albumartist%" -T "ALBUM=%albumtitle%" -T "DATE=%year%" -T "TRACKNUMBER=%tracknr%" -T "TRACKTOTAL=%numtracks%" -T "GENRE=%genre%" -T "COMMENT=%comment%" -T "PERFORMER=%albuminterpret%" -T "COMPOSER=%composer%" %source% -o %dest%
TOC of the extracted CD
Track | Start | Length | Start sector | End sector --------------------------------------------------------- 1 | 0:00.33 | 1:57.20 | 33 | 8827 2 | 1:57.53 | 2:56.62 | 8828 | 22089 3 | 4:54.40 | 2:06.73 | 22090 | 31612 4 | 7:01.38 | 1:54.20 | 31613 | 40182 5 | 8:55.58 | 2:45.40 | 40183 | 52597 6 | 11:41.23 | 1:51.60 | 52598 | 60982 7 | 13:33.08 | 1:40.30 | 60983 | 68512 8 | 15:13.38 | 3:53.02 | 68513 | 85989 9 | 19:06.40 | 4:20.30 | 85990 | 105519 10 | 23:26.70 | 3:09.70 | 105520 | 119764 11 | 26:36.65 | 2:41.65 | 119765 | 131904 12 | 29:18.55 | 4:30.50 | 131905 | 152204 13 | 33:49.30 | 2:07.25 | 152205 | 161754 14 | 35:56.55 | 1:47.38 | 161755 | 169817 15 | 37:44.18 | 3:08.07 | 169818 | 183924 16 | 40:52.25 | 5:26.28 | 183925 | 208402 17 | 46:18.53 | 3:12.07 | 208403 | 222809 18 | 49:30.60 | 4:00.38 | 222810 | 240847
Range status and errors
Selected range
Filename F:\Ripped general\[0437] Telemann - Double and Triple Concertos - Hogwood\Telemann - Double and Triple Concertos - Hogwood.wav
Peak level 79.7 % Extraction speed 7.3 X Range quality 100.0 % Test CRC A0CD8FFD Copy CRC A0CD8FFD Copy OK
No errors occurred
AccurateRip summary
Track 1 accurately ripped (confidence 4) [063946F8] (AR v2)Track 2 accurately ripped (confidence 4) [3B2D106A] (AR v2)Track 3 accurately ripped (confidence 3) [FCABA787] (AR v2)Track 4 accurately ripped (confidence 4) [C76FD253] (AR v2)Track 5 accurately ripped (confidence 4) [3A40B352] (AR v2)Track 6 accurately ripped (confidence 4) [41624FC2] (AR v2)Track 7 accurately ripped (confidence 4) [9869F8B8] (AR v2)Track 8 accurately ripped (confidence 4) [9DA7C334] (AR v2)Track 9 accurately ripped (confidence 3) [D3B830D6] (AR v2)Track 10 accurately ripped (confidence 4) [C1BAD193] (AR v2)Track 11 accurately ripped (confidence 3) [6A456CD5] (AR v2)Track 12 accurately ripped (confidence 3) [1FED0FEB] (AR v2)Track 13 accurately ripped (confidence 4) [E288F939] (AR v2)Track 14 accurately ripped (confidence 4) [2E1E2120] (AR v2)Track 15 accurately ripped (confidence 3) [25F68C75] (AR v2)Track 16 accurately ripped (confidence 3) [B50311E7] (AR v2)Track 17 accurately ripped (confidence 3) [C1901413] (AR v2)Track 18 accurately ripped (confidence 3) [1887DA9C] (AR v2)
All tracks accurately ripped
End of status report

Лог проверки качества

AUDIOCHECKER v2.0 beta (build 457) - by Dester - opdester@freemail.hu~~~~~~~~~~~~~~~~~~~~~~~~~~~~~~~~~~-=== DO NOT EDIT THIS FILE! ===-
Path: ...\Telemann - Double and Triple Concertos (Hogwood)
1 -=- Telemann - Double and Triple Concertos - Hogwood.flac -=- CDDA (100%)
204578148



Показать сообщения:    

Текущее время: 09-Дек 22:19

Часовой пояс: UTC + 3


Вы не можете начинать темы
Вы не можете отвечать на сообщения
Вы не можете редактировать свои сообщения
Вы не можете удалять свои сообщения
Вы не можете голосовать в опросах
Вы не можете прикреплять файлы к сообщениям
Вы не можете скачивать файлы