(minimalism) Филип Гласс / Philip Glass - Symphony No.10 / Concert Overture (Dennis Russell Davies) - 2015, FLAC (tracks) lossless


 

[Цитировать]

Philip Glass - Symphony No.10 / Concert Overture (2012) (Dennis Russell Davies)
Жанр: classical, minimalism
Страна-производитель диска: USA
Год издания диска: 2015
Издатель (лейбл): Orange Mountain Music
Аудиокодек: FLAC
Тип рипа: tracks
Битрейт аудио: lossless
Источник: скачано с
сайт-источник/ник/другое: WhatCD
Наличие сканов в содержимом раздачи: нет
Треклист:
Symphony No.10
Movement I - 6:15
Movement II - 7:07
Movement III - 5:42
Movement IV - 6:17
Movement V - 6:24
Concert Overture (2012) - 7:55
Исполнители:
performed by the Bruckner Orchester Linz under the direction of Dennis Russell Davies

Лог создания рипа

X Lossless Decoder version 20141129 (148.1)
XLD extraction logfile from 2015-08-02 14:40:31 -0400
Philip Glass / Symphony No. 10, Concert Overture
Used drive : Optiarc DVD RW AD-7760H (revision 1.00)Media type : Pressed CD
Ripper mode : XLD Secure RipperDisable audio cache : OK for the drive with a cache less than 1375KiBMake use of C2 pointers : NORead offset correction : 48Max retry count : 20Gap status : Analyzed, Appended (except HTOA)
TOC of the extracted CD Track | Start | Length | Start sector | End sector --------------------------------------------------------- 1 | 00:00:00 | 06:15:11 | 0 | 28135 2 | 06:15:11 | 07:07:06 | 28136 | 60166 3 | 13:22:17 | 05:41:45 | 60167 | 85786 4 | 19:03:62 | 06:17:08 | 85787 | 114069 5 | 25:20:70 | 06:23:69 | 114070 | 142863 6 | 31:44:64 | 07:54:59 | 142864 | 178472
AccurateRip Summary Disc not found in AccurateRip DB.
All Tracks Album gain : -1.57 dB Peak : 0.896515 Statistics Read error : 0 Jitter error (maybe fixed) : 0 Retry sector count : 0 Damaged sector count : 0
Track 01 Filename : /Users/cthulhu/Desktop/Uploads/Philip Glass - Symphony No. 10, Concert Overture (2015) [FLAC]/01 Symphony No. 10 - Movement I.flac Pre-gap length : 00:02:00
Track gain : -1.05 dB Peak : 0.896515 CRC32 hash (test run) : 75FD1789 CRC32 hash : 75FD1789 CRC32 hash (skip zero) : 84210B8F AccurateRip v1 signature : 2194ACC7 AccurateRip v2 signature : AC6700B7 ->Track not present in AccurateRip database. Statistics Read error : 0 Jitter error (maybe fixed) : 0 Retry sector count : 0 Damaged sector count : 0
Track 02 Filename : /Users/cthulhu/Desktop/Uploads/Philip Glass - Symphony No. 10, Concert Overture (2015) [FLAC]/02 Symphony No. 10 - Movement II.flac
Track gain : -0.77 dB Peak : 0.816437 CRC32 hash (test run) : 94052F90 CRC32 hash : 94052F90 CRC32 hash (skip zero) : A2CFF12B AccurateRip v1 signature : 1500E9AB AccurateRip v2 signature : 2478605A ->Track not present in AccurateRip database. Statistics Read error : 0 Jitter error (maybe fixed) : 0 Retry sector count : 0 Damaged sector count : 0
Track 03 Filename : /Users/cthulhu/Desktop/Uploads/Philip Glass - Symphony No. 10, Concert Overture (2015) [FLAC]/03 Symphony No. 10 - Movement III.flac
Track gain : -0.73 dB Peak : 0.833405 CRC32 hash (test run) : C7CCF9BA CRC32 hash : C7CCF9BA CRC32 hash (skip zero) : 509D7ADE AccurateRip v1 signature : 4B6F57A1 AccurateRip v2 signature : 41F3B9FF ->Track not present in AccurateRip database. Statistics Read error : 0 Jitter error (maybe fixed) : 0 Retry sector count : 0 Damaged sector count : 0
Track 04 Filename : /Users/cthulhu/Desktop/Uploads/Philip Glass - Symphony No. 10, Concert Overture (2015) [FLAC]/04 Symphony No. 10 - Movement IV.flac
Track gain : -1.76 dB Peak : 0.885712 CRC32 hash (test run) : 2A713BF8 CRC32 hash : 2A713BF8 CRC32 hash (skip zero) : 24F2C15E AccurateRip v1 signature : FA95A094 AccurateRip v2 signature : 9719737F ->Track not present in AccurateRip database. Statistics Read error : 0 Jitter error (maybe fixed) : 0 Retry sector count : 0 Damaged sector count : 0
Track 05 Filename : /Users/cthulhu/Desktop/Uploads/Philip Glass - Symphony No. 10, Concert Overture (2015) [FLAC]/05 Symphony No. 10 - Movement V.flac
Track gain : -2.22 dB Peak : 0.894440 CRC32 hash (test run) : D6102288 CRC32 hash : D6102288 CRC32 hash (skip zero) : F717B4A2 AccurateRip v1 signature : A26F43CB AccurateRip v2 signature : 2BAB37E9 ->Track not present in AccurateRip database. Statistics Read error : 0 Jitter error (maybe fixed) : 0 Retry sector count : 0 Damaged sector count : 0
Track 06 Filename : /Users/cthulhu/Desktop/Uploads/Philip Glass - Symphony No. 10, Concert Overture (2015) [FLAC]/06 Concert Overture.flac
Track gain : -3.31 dB Peak : 0.890656 CRC32 hash (test run) : 29650E7D CRC32 hash : 29650E7D CRC32 hash (skip zero) : DADEF7BA AccurateRip v1 signature : 03C6A6B8 AccurateRip v2 signature : 959EF12C ->Track not present in AccurateRip database. Statistics Read error : 0 Jitter error (maybe fixed) : 0 Retry sector count : 0 Damaged sector count : 0
No errors occurred
End of status report
-----BEGIN XLD SIGNATURE-----akTVHpelKbNFuRab2hLyHUYF.98E1lYwW6Qb2dAekediquoo3p7raUjgEX8sQSVTC1a76jiP.Aosq.eoacAV7HDHjF9g9NZCiWIgEIe-----END XLD SIGNATURE-----

Содержание индексной карты (.CUE)

TITLE "Symphony No. 10, Concert Overture"PERFORMER "Philip Glass"CATALOG 0801837010121REM GENRE "Classical"REM DATE "2015"REM DISCNUMBER 1REM TOTALDISCS 1REM DISCID 44094B06REM REPLAYGAIN_ALBUM_GAIN -1.57 dBREM REPLAYGAIN_ALBUM_PEAK 0.896515FILE "01 Symphony No. 10 - Movement I.flac" WAVE TRACK 01 AUDIO TITLE "Symphony No. 10 - Movement I" PERFORMER "Dennis Russell Davies, Bruckner Orchestra Linz" SONGWRITER "Philip Glass" ISRC US65R1510101 REM REPLAYGAIN_TRACK_GAIN -1.05 dB REM REPLAYGAIN_TRACK_PEAK 0.896515 INDEX 01 00:00:00FILE "02 Symphony No. 10 - Movement II.flac" WAVE TRACK 02 AUDIO TITLE "Symphony No. 10 - Movement II" PERFORMER "Dennis Russell Davies, Bruckner Orchestra Linz" SONGWRITER "Philip Glass" ISRC US65R1510102 REM REPLAYGAIN_TRACK_GAIN -0.77 dB REM REPLAYGAIN_TRACK_PEAK 0.816437 INDEX 01 00:00:00FILE "03 Symphony No. 10 - Movement III.flac" WAVE TRACK 03 AUDIO TITLE "Symphony No. 10 - Movement III" PERFORMER "Dennis Russell Davies, Bruckner Orchestra Linz" SONGWRITER "Philip Glass" ISRC US65R1510103 REM REPLAYGAIN_TRACK_GAIN -0.73 dB REM REPLAYGAIN_TRACK_PEAK 0.833405 INDEX 01 00:00:00FILE "04 Symphony No. 10 - Movement IV.flac" WAVE TRACK 04 AUDIO TITLE "Symphony No. 10 - Movement IV" PERFORMER "Dennis Russell Davies, Bruckner Orchestra Linz" SONGWRITER "Philip Glass" ISRC US65R1510104 REM REPLAYGAIN_TRACK_GAIN -1.76 dB REM REPLAYGAIN_TRACK_PEAK 0.885712 INDEX 01 00:00:00FILE "05 Symphony No. 10 - Movement V.flac" WAVE TRACK 05 AUDIO TITLE "Symphony No. 10 - Movement V" PERFORMER "Dennis Russell Davies, Bruckner Orchestra Linz" SONGWRITER "Philip Glass" ISRC US65R1510105 REM REPLAYGAIN_TRACK_GAIN -2.22 dB REM REPLAYGAIN_TRACK_PEAK 0.894440 INDEX 01 00:00:00FILE "06 Concert Overture.flac" WAVE TRACK 06 AUDIO TITLE "Concert Overture" PERFORMER "Dennis Russell Davies, Bruckner Orchestra Linz" SONGWRITER "Philip Glass" ISRC US65R1510106 REM REPLAYGAIN_TRACK_GAIN -3.31 dB REM REPLAYGAIN_TRACK_PEAK 0.890656 INDEX 01 00:00:00
Orange Mountain Music presents the world premiere recording of Philip Glass’s Symphony No.10 performed by the Bruckner Orchester Linz under the direction of Dennis Russell Davies.
Following the grand sweep and large canvas of Glass’s Ninth Symphony, his Tenth Symphony is described by the composer as the “Not-Nine Symphony.” Set in five shorter movements, this shorter work is a compact tour-de-force – originally inspired by a public fireworks project that premiered in Spain in 2007. Glass orchestrated the work in 2012 and it premiered in 2012 in France under Dennis Russell Davies as Symphony No.10.
“Concert Overture (2012)” was composed as a celebratory piece to commemorate the bicentennial of the War of 1812 and had a simultaneous premiere in Toronto with the Toronto Symphony conducted by Peter Oundjian and in the composer’s hometown of Baltimore with the Baltimore Symphony and Marin Alsop. Juxtaposed with Tchaikovsky’s “1812 Overture” which celebrated the end of the war, Glass’s “2012 Overture” became “a celebration of a celebration.” The rousing overture is featured here in its world premiere recording, all works under the direction of Dennis Russell Davies and the Bruckner Orchester Linz who previously recorded Glass's Symphonies Nos.6,7,8,and 9 to great acclaim.
Available at Amazon and iTunes July 31, 2015
(Classical/Minimalism) Филип Гласс / Philip Glass - Symphony No.4 'Heroes' [from the music of David Bowie and Brian Eno] (Dennis Russel Davies) - 2014, FLAC (image+.cue) lossless ¶



Показать сообщения:    

Текущее время: 04-Дек 00:54

Часовой пояс: UTC + 3


Вы не можете начинать темы
Вы не можете отвечать на сообщения
Вы не можете редактировать свои сообщения
Вы не можете удалять свои сообщения
Вы не можете голосовать в опросах
Вы не можете прикреплять файлы к сообщениям
Вы не можете скачивать файлы