(Classical) Handel - Water Music; Rodrigo (Ouverture) - Les Musiciens du Louvre - Grenoble, Marc Minkowski - 2010, FLAC (image+.cue) lossless


 

[Цитировать]

Handel - Water Music; Rodrigo (Ouverture) - Les Musiciens du Louvre - Grenoble, Marc Minkowski
Жанр: Classical
Страна-производитель диска: France
Год издания диска: 2010
Издатель (лейбл): Naive
Номер по каталогу: V5234
Дата записи: 2010
Аудиокодек: FLAC
Тип рипа: image+.cue
Битрейт аудио: lossless
Продолжительность: 67:30
Источник: собственный рип
Наличие сканов в содержимом раздачи: да
Треклист:
George Frideric Handel (1685-1759)
Water Music
[1]-[12] Suite in F major, HWV 348
[13]-[17] Suite in G major, HWV 350
[18]-[22] Suite in D major, HWV 349
[23]-[30] Rodrigo (Ouverture)
Исполнители:
Les Musiciens du Louvre - Grenoble
Marc Minkowski
conductor

Лог создания рипа

Exact Audio Copy V1.1 from 23. June 2015
EAC extraction logfile from 27. July 2015, 22:27
Les Musiciens du Louvre - Grenoble, Marc Minkowski / Handel - Water Music
Used drive : HL-DT-STDVDRAM GU70N Adapter: 1 ID: 0
Read mode : SecureUtilize accurate stream : YesDefeat audio cache : YesMake use of C2 pointers : No
Read offset correction : 48Overread into Lead-In and Lead-Out : NoFill up missing offset samples with silence : YesDelete leading and trailing silent blocks : NoNull samples used in CRC calculations : YesUsed interface : Native Win32 interface for Win NT & 2000
Used output format : User Defined EncoderSelected bitrate : 128 kBit/sQuality : HighAdd ID3 tag : NoCommand line compressor : C:\Program Files (x86)\Exact Audio Copy\Flac\flac.exeAdditional command line options : -V -8 -T "Date=%year%" -T "Genre=%genre%" %source%
TOC of the extracted CD
Track | Start | Length | Start sector | End sector --------------------------------------------------------- 1 | 0:00.00 | 3:04.40 | 0 | 13839 2 | 3:04.40 | 1:59.66 | 13840 | 22830 3 | 5:04.31 | 2:13.70 | 22831 | 32875 4 | 7:18.26 | 2:04.37 | 32876 | 42212 5 | 9:22.63 | 3:09.67 | 42213 | 56454 6 | 12:32.55 | 3:27.10 | 56455 | 71989 7 | 15:59.65 | 2:33.40 | 71990 | 83504 8 | 18:33.30 | 2:00.74 | 83505 | 92578 9 | 20:34.29 | 1:00.10 | 92579 | 97088 10 | 21:34.39 | 1:10.69 | 97089 | 102407 11 | 22:45.33 | 4:19.63 | 102408 | 121895 12 | 27:05.21 | 3:12.47 | 121896 | 136342 13 | 30:17.68 | 3:23.58 | 136343 | 151625 14 | 33:41.51 | 2:28.28 | 151626 | 162753 15 | 36:10.04 | 0:51.03 | 162754 | 166581 16 | 37:01.07 | 1:55.35 | 166582 | 175241 17 | 38:56.42 | 1:39.51 | 175242 | 182717 18 | 40:36.18 | 2:34.30 | 182718 | 194297 19 | 43:10.48 | 2:50.60 | 194298 | 207107 20 | 46:01.33 | 1:25.30 | 207108 | 213512 21 | 47:26.63 | 2:34.16 | 213513 | 225078 22 | 50:01.04 | 1:38.26 | 225079 | 232454 23 | 51:39.30 | 4:01.16 | 232455 | 250545 24 | 55:40.46 | 0:51.19 | 250546 | 254389 25 | 56:31.65 | 2:26.51 | 254390 | 265390 26 | 58:58.41 | 1:12.30 | 265391 | 270820 27 | 60:10.71 | 0:58.66 | 270821 | 275236 28 | 61:09.62 | 1:18.05 | 275237 | 281091 29 | 62:27.67 | 0:59.16 | 281092 | 285532 30 | 63:27.08 | 4:03.33 | 285533 | 303790
Range status and errors
Selected range
Filename C:\temp\V5234 - Handel - Water Music\Handel - Water Music.wav
Peak level 100.0 % Extraction speed 2.3 X Range quality 100.0 % Test CRC 0ADC0387 Copy CRC 0ADC0387 Copy OK
No errors occurred
AccurateRip summary
Track 1 cannot be verified as accurate (confidence 18) [385BEBA4], AccurateRip returned [5CCBD3DF] (AR v2)Track 2 cannot be verified as accurate (confidence 18) [4B283A40], AccurateRip returned [1CB8C8FA] (AR v2)Track 3 cannot be verified as accurate (confidence 18) [F0F2DB69], AccurateRip returned [EEAED6A4] (AR v2)Track 4 cannot be verified as accurate (confidence 18) [89D6522A], AccurateRip returned [17375D76] (AR v2)Track 5 cannot be verified as accurate (confidence 18) [B7C81D0E], AccurateRip returned [8B025C8C] (AR v2)Track 6 cannot be verified as accurate (confidence 18) [844D4B90], AccurateRip returned [BE72FE99] (AR v2)Track 7 cannot be verified as accurate (confidence 18) [9220C18F], AccurateRip returned [B9C585FD] (AR v2)Track 8 cannot be verified as accurate (confidence 18) [2A6466D9], AccurateRip returned [3FAD5BF6] (AR v2)Track 9 cannot be verified as accurate (confidence 18) [A4258470], AccurateRip returned [F5E7FA41] (AR v2)Track 10 cannot be verified as accurate (confidence 18) [6AB9E7C7], AccurateRip returned [74DBC7E4] (AR v2)Track 11 cannot be verified as accurate (confidence 18) [B99FBB07], AccurateRip returned [7F2039ED] (AR v2)Track 12 cannot be verified as accurate (confidence 18) [98D52804], AccurateRip returned [90A2FDD1] (AR v2)Track 13 cannot be verified as accurate (confidence 18) [58E23E7D], AccurateRip returned [BFD5F9F5] (AR v2)Track 14 cannot be verified as accurate (confidence 18) [2C19EF8D], AccurateRip returned [DF8A2D7B] (AR v2)Track 15 cannot be verified as accurate (confidence 18) [A6B99180], AccurateRip returned [BE4A05BF] (AR v2)Track 16 cannot be verified as accurate (confidence 18) [7FE41D84], AccurateRip returned [5C88B12C] (AR v2)Track 17 cannot be verified as accurate (confidence 18) [00B829EC], AccurateRip returned [107820D2] (AR v2)Track 18 cannot be verified as accurate (confidence 18) [D0076076], AccurateRip returned [2B38DF21] (AR v2)Track 19 cannot be verified as accurate (confidence 18) [1FEE76C7], AccurateRip returned [E6119FF2] (AR v2)Track 20 cannot be verified as accurate (confidence 18) [8B0B6E4C], AccurateRip returned [DF85A4BF] (AR v2)Track 21 cannot be verified as accurate (confidence 18) [CCC28DF1], AccurateRip returned [F6FFC439] (AR v2)Track 22 cannot be verified as accurate (confidence 18) [89747802], AccurateRip returned [9C8FDF71] (AR v2)Track 23 cannot be verified as accurate (confidence 18) [7A2335B9], AccurateRip returned [77F9983E] (AR v2)Track 24 cannot be verified as accurate (confidence 18) [F10B26EB], AccurateRip returned [3C31E169] (AR v2)Track 25 cannot be verified as accurate (confidence 18) [4659BA15], AccurateRip returned [47610876] (AR v2)Track 26 cannot be verified as accurate (confidence 18) [BC833D5A], AccurateRip returned [0FE125D2] (AR v2)Track 27 cannot be verified as accurate (confidence 18) [701E7DF5], AccurateRip returned [4108681E] (AR v2)Track 28 cannot be verified as accurate (confidence 18) [63BE6770], AccurateRip returned [3740B019] (AR v2)Track 29 cannot be verified as accurate (confidence 18) [97A106F7], AccurateRip returned [DB37C7CB] (AR v2)Track 30 cannot be verified as accurate (confidence 18) [6F4289DC], AccurateRip returned [8CA85674] (AR v2)
No tracks could be verified as accurateYou may have a different pressing from the one(s) in the database
End of status report
==== Log checksum 7E79BA4A5DC3AA7B8FC3C4565D1E166E793EA931DEBBEDB1DB5708B40A1F64DE ====



Показать сообщения:    

Текущее время: 10-Дек 02:15

Часовой пояс: UTC + 3


Вы не можете начинать темы
Вы не можете отвечать на сообщения
Вы не можете редактировать свои сообщения
Вы не можете удалять свои сообщения
Вы не можете голосовать в опросах
Вы не можете прикреплять файлы к сообщениям
Вы не можете скачивать файлы