(Classical) Bela Bartok - Music for strings, percussion and celesta; Honegger - Symphony No.3 'Liturgique'; Игорь Стравинский - Агон (Евгений Мравинский) - 2015, FLAC (image+.cue) lossless


 

[Цитировать]

Евгений Мравинский - 20th Century's Philosophies
Жанр: Classical
Страна-производитель диска: Austria
Год издания диска: 2015
Издатель (лейбл): Praga Digitals
Номер по каталогу: 350 087
Аудиокодек: FLAC
Тип рипа: image+.cue
Битрейт аудио: lossless
Продолжительность: 1:18'28"
Источник: собственный рип
Наличие сканов в содержимом раздачи: да
Треклист:
Bela Bartok - Music for strings, percussion and celesta
(Rec.24.V.1967)
01. I.Andante tranquillo
02. II.Allegro
03. III.Adagio
04. IV.Allegro molto
Arthur Honegger - Symphony No.3 'Liturgique'
(Rec.28.II.1965)
05. I.Dies irae - Allegro marcato
06. II.De profundis clamavi - Adagio
07. III.Dona nobis pacem - Andante
Игорь Стравинский - Агон
(Rec.30.X.1968)
08. I.Pas de quatre
09. II.Double pas de quatre
10. III.Coda.Triple pas de quatre
11. IV.Prelude
12. V.1.Sarabande-step
13. V.2.Gaillarde
14. V.3.Coda
15. V.4.Interlude
16. VI.1.Bransle simple
17. VI.2.Bransle Gay
18. VI.3.Bransle double
19. VI.4.Interlude
20. VII.Pas de deux
21. VIII.Coda
22. IX.Quatre duos
23. X.Quatre trios
24. XI.Coda
Исполнители:
ЗКР Академический симфонический оркестр Ленинградской государственной филармонии
Евгений Мравинский
-

Лог создания рипа

Exact Audio Copy V1.0 beta 1 from 15. November 2010
EAC extraction logfile from 23. July 2015, 16:40
Yevgeny Mravinsky / 20th Century's Philosophies
Used drive : Optiarc DVD RW AD-7203A Adapter: 4 ID: 1
Read mode : SecureUtilize accurate stream : YesDefeat audio cache : YesMake use of C2 pointers : No
Read offset correction : 48Overread into Lead-In and Lead-Out : NoFill up missing offset samples with silence : YesDelete leading and trailing silent blocks : NoNull samples used in CRC calculations : YesUsed interface : Native Win32 interface for Win NT & 2000
Used output format : User Defined EncoderSelected bitrate : 128 kBit/sQuality : HighAdd ID3 tag : NoCommand line compressor : C:\Program Files\FLAC\flac.exeAdditional command line options : -T "COMMENT=Ripped by GFox" -8 -V %s
TOC of the extracted CD
Track | Start | Length | Start sector | End sector --------------------------------------------------------- 1 | 0:00.00 | 7:09.64 | 0 | 32238 2 | 7:09.64 | 7:24.66 | 32239 | 65604 3 | 14:34.55 | 6:36.05 | 65605 | 95309 4 | 21:10.60 | 6:41.49 | 95310 | 125433 5 | 27:52.34 | 6:40.30 | 125434 | 155463 6 | 34:32.64 | 10:45.33 | 155464 | 203871 7 | 45:18.22 | 9:33.18 | 203872 | 246864 8 | 54:51.40 | 1:47.34 | 246865 | 254923 9 | 56:38.74 | 1:36.08 | 254924 | 262131 10 | 58:15.07 | 1:09.53 | 262132 | 267359 11 | 59:24.60 | 0:57.40 | 267360 | 271674 12 | 60:22.25 | 1:18.18 | 271675 | 277542 13 | 61:40.43 | 1:18.72 | 277543 | 283464 14 | 62:59.40 | 1:27.59 | 283465 | 290048 15 | 64:27.24 | 0:55.24 | 290049 | 294197 16 | 65:22.48 | 0:59.11 | 294198 | 298633 17 | 66:21.59 | 0:53.26 | 298634 | 302634 18 | 67:15.10 | 1:26.63 | 302635 | 309147 19 | 68:41.73 | 0:56.44 | 309148 | 313391 20 | 69:38.42 | 4:15.45 | 313392 | 332561 21 | 73:54.12 | 1:35.31 | 332562 | 339717 22 | 75:29.43 | 0:32.02 | 339718 | 342119 23 | 76:01.45 | 0:39.11 | 342120 | 345055 24 | 76:40.56 | 1:47.53 | 345056 | 353133
Range status and errors
Selected range
Filename D:\EAC\Yevgeny Mravinsky - 20th Century's Philosophies.wav
Peak level 89.7 % Extraction speed 0.0 X Range quality 100.0 % Test CRC 3B6FC3E3 Copy CRC 3B6FC3E3 Copy OK
No errors occurred
AccurateRip summary
Track 1 not present in databaseTrack 2 not present in databaseTrack 3 not present in databaseTrack 4 not present in databaseTrack 5 not present in databaseTrack 6 not present in databaseTrack 7 not present in databaseTrack 8 not present in databaseTrack 9 not present in databaseTrack 10 not present in databaseTrack 11 not present in databaseTrack 12 not present in databaseTrack 13 not present in databaseTrack 14 not present in databaseTrack 15 not present in databaseTrack 16 not present in databaseTrack 17 not present in databaseTrack 18 not present in databaseTrack 19 not present in databaseTrack 20 not present in databaseTrack 21 not present in databaseTrack 22 not present in databaseTrack 23 not present in databaseTrack 24 not present in database
None of the tracks are present in the AccurateRip database
End of status report
==== Log checksum F07A180E32A9F398B5D6CA20191417085A5C20150088F4736ABE808F0D8C5C64 ====
-



Показать сообщения:    

Текущее время: 05-Дек 05:30

Часовой пояс: UTC + 3


Вы не можете начинать темы
Вы не можете отвечать на сообщения
Вы не можете редактировать свои сообщения
Вы не можете удалять свои сообщения
Вы не можете голосовать в опросах
Вы не можете прикреплять файлы к сообщениям
Вы не можете скачивать файлы