(Concerti Grossi) Alessandro Scarlatti (Алессандро Скарлатти) - 6 Sinfonie Di Concerto Grosso (№ 1-6) (Bennett, Smith, Elhorst, Soustrot, I Musici) - 1990, FLAC (image+.cue) lossless


 

[Цитировать]

Alessandro Scarlatti - 6 Sinfonie Di Concerto Grosso
I Musici
Жанр: Concerti Grossi
Страна-производитель диска: Germany
Год издания диска: 1990
Издатель (лейбл): Philips
Номер по каталогу: 400 017-2
Дата записи: 1980
Аудиокодек: FLAC
Тип рипа: image+.cue
Битрейт аудио: lossless
Продолжительность: 45:31
Источник: скачано с avaxhome
Наличие сканов в содержимом раздачи: да
Треклист:
1. Sinfonie No. 1 for 2 flutes, 2 violins, viola, cello & continuo in F major 6:32
2. Sinfonie No. 2 for flute, trumpet, 2 violins, viola, cello & continuo in D major 8:12
3. Sinfonie No. 3 for flute, 2 violins, viola, cello & continuo in D minor 7:14
4. Sinfonie No. 4 for flute, oboe (or violin), 2 violins, viola, cello & continuo in E minor 8:07
5. Sinfonie No. 5 for 2 flutes, 2 violins, viola, cello & continuo in D minor 8:09
6. Sinfonie No. 6 for flute, 2 violins, viola, cello & continuo in A minor 7:14
Исполнители:
I Musici
William Bennett - flute
Lenore Smith - flute
Hans Elhorst - oboe
Bernard Soustrot - trumpet

Лог создания рипа

Exact Audio Copy V1.0 beta 3 from 29. August 2011
EAC extraction logfile from 3. March 2013, 12:28
Alessandro Scarlatti - 6 Concerto Grossi - I Musici / Alessandro Scarlatti - 6 Concerto Grossi - I Musici
Used drive : _NEC DVD_RW ND-2500A Adapter: 3 ID: 1
Read mode : SecureUtilize accurate stream : YesDefeat audio cache : YesMake use of C2 pointers : No
Read offset correction : 48Overread into Lead-In and Lead-Out : NoFill up missing offset samples with silence : YesDelete leading and trailing silent blocks : NoNull samples used in CRC calculations : YesUsed interface : Native Win32 interface for Win NT & 2000
Used output format : User Defined EncoderSelected bitrate : 768 kBit/sQuality : HighAdd ID3 tag : NoCommand line compressor : C:\Program Files\Exact Audio Copy\FLAC\FLAC.EXEAdditional command line options : -6 -V -T "ARTIST=%artist%" -T "TITLE=%title%" -T "ALBUM=%albumtitle%" -T "DATE=%year%" -T "TRACKNUMBER=%tracknr%" -T "GENRE=%genre%" -T "COMMENT=%comment%" -T "BAND=%albuminterpret%" -T "ALBUMARTIST=%albuminterpret%" -T "COMPOSER=%composer%" %haslyrics%--tag-from-file=LYRICS="%lyricsfile%"%haslyrics% -T "DISCNUMBER=%cdnumber%" -T "TOTALDISCS=%totalcds%" -T "TOTALTRACKS=%numtracks%" %hascover%--picture="%coverfile%"%hascover% %source% -o %dest%
TOC of the extracted CD
Track | Start | Length | Start sector | End sector --------------------------------------------------------- 1 | 0:00.32 | 6:32.68 | 32 | 29499 2 | 6:33.25 | 8:12.40 | 29500 | 66439 3 | 14:45.65 | 7:14.40 | 66440 | 99029 4 | 22:00.30 | 8:07.35 | 99030 | 135589 5 | 30:07.65 | 8:09.65 | 135590 | 172329 6 | 38:17.55 | 7:14.02 | 172330 | 204881
Range status and errors
Selected range
Filename C:\EAC Extractions\Alessandro Scarlatti - 6 Concerto Grossi - I Musici - Alessandro Scarlatti - 6 Concerto Grossi - I Musici.wav
Peak level 68.7 % Extraction speed 5.7 X Range quality 100.0 % Test CRC 947D5F87 Copy CRC 947D5F87 Copy OK
No errors occurred
AccurateRip summary
Track 1 accurately ripped (confidence 3) [85BEA146] (AR v2)Track 2 accurately ripped (confidence 3) [6F0D28F3] (AR v2)Track 3 accurately ripped (confidence 3) [59CEFB85] (AR v2)Track 4 accurately ripped (confidence 3) [FD716714] (AR v2)Track 5 accurately ripped (confidence 3) [DB85CABF] (AR v2)Track 6 accurately ripped (confidence 3) [C0CB5B9B] (AR v2)
All tracks accurately ripped
End of status report
==== Log checksum 123B5457B86A8CD2786692557B1CAB1BC69A6F02FEBB7AFE57804C19E4369D4C ====

Лог проверки качества

AUDIOCHECKER v2.0 beta (build 457) - by Dester - opdester@freemail.hu~~~~~~~~~~~~~~~~~~~~~~~~~~~~~~~~~~-=== DO NOT EDIT THIS FILE! ===-
Path: ...\Scarlatti - 6 Sinfonie di Concerto Grosso
1 -=- Alessandro Scarlatti - 6 Concerto Grossi - I Musici.flac -=- CDDA (100%)
47644724



Показать сообщения:    

Текущее время: 09-Дек 12:47

Часовой пояс: UTC + 3


Вы не можете начинать темы
Вы не можете отвечать на сообщения
Вы не можете редактировать свои сообщения
Вы не можете удалять свои сообщения
Вы не можете голосовать в опросах
Вы не можете прикреплять файлы к сообщениям
Вы не можете скачивать файлы