(Orchestra) Gustav Mahler (Густав Малер) - Symphonie Nr.6 (BBC Symphony Orchestra - Pierre Boulez) - 1995, FLAC (image+.cue) lossless


 

[Цитировать]

PIERRE BOULEZ
MAHLER SYMPHONY N.6 "TRAGIC"
BBC SYMPHONY ORCHESTRA
-
-
- Жанр: Orchestral
Страна-производитель диска: Italy
Год издания диска: 1995
Издатель (лейбл): Enterprise
Дата записи: 1973
Аудиокодек: FLAC
Тип рипа: image+.cue
Битрейт аудио: lossless
Продолжительность: 75'38''
Источник: собственный рип
Наличие сканов в содержимом раздачи: да
Треклист:
Gustav Mahler (Густав Малер) - Symphonie Nr.6:
[01] I. Allegro energico ma non troppo
[02] II. Scherzo
[03] III. Andante moderato
[04] IV. Finale
Исполнители:
BBC Symphony Orchestra - Pierre Boulez
-

Лог создания рипа

Exact Audio Copy V1.0 beta 3 from 29. August 2011
EAC extraction logfile from 8. April 2014, 21:11
BBC Symphony Orchestra - Pierre Boulez / Mahler - Symphonie Nr.6
Used drive : COMPAQ CD-ROM LTN403 Adapter: 0 ID: 0
Read mode : SecureUtilize accurate stream : YesDefeat audio cache : YesMake use of C2 pointers : No
Read offset correction : -1164Overread into Lead-In and Lead-Out : NoFill up missing offset samples with silence : YesDelete leading and trailing silent blocks : NoNull samples used in CRC calculations : YesUsed interface : Native Win32 interface for Win NT & 2000
Used output format : User Defined EncoderSelected bitrate : 1024 kBit/sQuality : HighAdd ID3 tag : NoCommand line compressor : C:\Program Files\FLAC\flac.exeAdditional command line options : -T"COMMENT=rip by el coronel" -8 -V %source%
TOC of the extracted CD
Track | Start | Length | Start sector | End sector --------------------------------------------------------- 1 | 0:00.33 | 23:16.00 | 33 | 104732 2 | 23:16.33 | 12:40.00 | 104733 | 161732 3 | 35:56.33 | 12:40.00 | 161733 | 218732 4 | 48:36.33 | 27:02.00 | 218733 | 340382
Range status and errors
Selected range
Filename D:\Mahler - Symphonie Nr.6 (BBC, Boulez).wav
Peak level 100.0 % Extraction speed 3.0 X Range quality 99.9 % Test CRC 81C78FC1 Copy CRC 81C78FC1 Copy OK
No errors occurred
End of status report
==== Log checksum DC8C6626655740BB44EFD69F9F65973353E3CCE6BB74379ABB718602C2523518 ====

Содержание индексной карты (.CUE)

REM GENRE ClassicalREM DATE 1995REM DISCID 3B11BA04REM COMMENT "ExactAudioCopy v1.0b3"PERFORMER "BBC Symphony Orchestra - Pierre Boulez"TITLE "Mahler - Symphonie Nr.6"FILE "Mahler - Symphonie Nr.6 (BBC, Boulez).flac" WAVE TRACK 01 AUDIO TITLE "I. Allegro energico ma non troppo" PERFORMER "BBC Symphony Orchestra - Pierre Boulez" INDEX 00 00:00:00 INDEX 01 00:00:33 TRACK 02 AUDIO TITLE "II. Scherzo" PERFORMER "BBC Symphony Orchestra - Pierre Boulez" INDEX 01 23:16:33 TRACK 03 AUDIO TITLE "III. Andante moderato" PERFORMER "BBC Symphony Orchestra - Pierre Boulez" INDEX 00 35:56:31 INDEX 01 35:56:33 TRACK 04 AUDIO TITLE "IV. Finale" PERFORMER "BBC Symphony Orchestra - Pierre Boulez" INDEX 01 48:36:33
-Доп. информация: в отличие от остальных малеровских записей с БиБиСи у Булеза, где всё в общем и целом достаточно традиционно, это исполнение Шестой, пожалуй, наиболее странное из всех, что мне приходилось слушать.
Прошу обратить внимание, что запись идёт не с самого начала Симфонии, вырезаны первые несколько секунд звучания.



Показать сообщения:    

Текущее время: 03-Дек 20:44

Часовой пояс: UTC + 3


Вы не можете начинать темы
Вы не можете отвечать на сообщения
Вы не можете редактировать свои сообщения
Вы не можете удалять свои сообщения
Вы не можете голосовать в опросах
Вы не можете прикреплять файлы к сообщениям
Вы не можете скачивать файлы