(Classical) Wolfgang Amadeus Mozart - Romantic classic /В.А.Моцарт - Романтическая классика 1756-1791 - 1999, FLAC (image+.cue) lossless


 

[Цитировать]

Wolfgang Amadeus Mozart Romantic classic / В.А.Моцарт Романтическая классика 1756-1791
Жанр: Classical
Страна-производитель диска: Россия
Год издания диска: 1999
Издатель (лейбл): Квадро Диск
Аудиокодек: FLAC
Тип рипа: image+.cue
Битрейт аудио: lossless
Источник: собственный рип
Треклист:
1. Symphony #40 in G-minor, K.550
2. Serenada #13 in G-major 'Eine Kleine Nacht Musik', K.525
3. Concerto for piano and orchestra #20 in D-minor, Don Guan, K.466
4. Fantazy in D-minor, K.551
5. Divertimento in D-major, K.334 Menuetto
6. Divertimento in D-major, K.334 Allegro
7. Concerto for two pianos and orchestra in E-flat major, K.365
8. Sonata for piano #11 in A-major, K.331
9. Concerto for horn and orchestra #4 in E-flat major, K.495
10. Gallimathius musicum, 1766year!
11. The Marriage of Figaro, K.495
12. The magic fluite, K.493
13. Symphony #41 in C-major 'Jupiter', K.551
14. Concerto for piano and orchestra #21 in C-major 'Elvira Madigan', K.467
15. Concerto for fluite and orchestra #2 in D-major, K.314
16. Concerto for piano and orchestra in C-major, K.554
17. 'Requiem'. Mass #19 in D-minor, K.555. Lacromosa
18. 'Requiem'. Mass #19 in D-minor, K.555. Dies Irae
Исполнители:
Нет информации на диске

Лог создания рипа

Exact Audio Copy V1.0 beta 6 from 9. April 2015
Отчёт EAC об извлечении, выполненном 9. июля 2015, 23:01
Wolfgang Amadeus Mozart / Romantic Classic
Дисковод: ASUS DRW-24B5ST Adapter: 1 ID: 0
Режим чтения : ДостоверностьИспользование точного потока : ДаОтключение кэша аудио : ДаИспользование указателей C2 : Нет
Коррекция смещения при чтении : 6Способность читать области Lead-in и Lead-out : НетЗаполнение пропущенных сэмплов тишиной : ДаУдаление блоков с тишиной в начале и конце : НетПри вычислениях CRC использовались нулевые сэмплы : ДаИнтерфейс : Встроенный Win32-интерфейс для Win NT/2000
Выходной формат : Пользовательский кодировщикВыбранный битрейт : 128 kBit/sКачество : ВысокийДобавление ID3-тега : НетУтилита сжатия : C:\Program Files (x86)\Exact Audio Copy\flac-1.3.1-win\win64\flac.exeДополнительные параметры : -V -8 -T "Date=%year%" -T "Genre=%genre%" %source%
TOC извлечённого CD
Трек | Старт | Длительность | Начальный сектор | Конечный сектор --------------------------------------------------------------------- 1 | 0:00.00 | 7:54.50 | 0 | 35599 2 | 7:54.50 | 5:40.33 | 35600 | 61132 3 | 13:35.08 | 2:41.60 | 61133 | 73267 4 | 16:16.68 | 3:43.69 | 73268 | 90061 5 | 20:00.62 | 4:14.33 | 90062 | 109144 6 | 24:15.20 | 1:23.26 | 109145 | 115395 7 | 25:38.46 | 7:46.12 | 115396 | 150357 8 | 33:24.58 | 3:31.60 | 150358 | 166242 9 | 36:56.43 | 3:41.33 | 166243 | 182850 10 | 40:38.01 | 1:16.22 | 182851 | 188572 11 | 41:54.23 | 4:27.30 | 188573 | 208627 12 | 46:21.53 | 7:08.05 | 208628 | 240732 13 | 53:29.58 | 5:12.50 | 240733 | 264182 14 | 58:42.33 | 5:39.55 | 264183 | 289662 15 | 64:22.13 | 5:26.00 | 289663 | 314112 16 | 69:48.13 | 3:48.56 | 314113 | 331268 17 | 73:36.69 | 3:32.25 | 331269 | 347193 18 | 77:09.19 | 1:55.52 | 347194 | 355870
Характеристики диапазона извлечения и сообщения об ошибках
Выбранный диапазон
Имя файла C:\Users\Тарик\Music\Моцарт\Романтическая классика\Wolfgang Amadeus Mozart - Romantic Classic1.wav
Подозрительная позиция 1:17:03 Подозрительная позиция 1:17:30 - 1:17:31 Подозрительная позиция 1:17:35 - 1:17:38 Подозрительная позиция 1:17:40 - 1:17:41
Пиковый уровень 99.5 % Скорость извлечения 3.9 X Качество диапазона 99.8 % CRC теста 2F8E9B19 CRC копии D1772400 Копирование завершено
Были ошибки
AccurateRip: сводка
Трек 1 точность не определена (достоверность 1) [8F26F45A], AccurateRip вернул [C1EA05A5] (AR v2)Трек 2 точность не определена (достоверность 1) [0ADDB53D], AccurateRip вернул [16E99E81] (AR v2)Трек 3 точность не определена (достоверность 1) [B707A988], AccurateRip вернул [88BA543F] (AR v2)Трек 4 точность не определена (достоверность 1) [6EC1CD65], AccurateRip вернул [01665D99] (AR v2)Трек 5 точность не определена (достоверность 1) [B79166F1], AccurateRip вернул [814E8B1A] (AR v2)Трек 6 точность не определена (достоверность 1) [8C70BFE9], AccurateRip вернул [55976360] (AR v2)Трек 7 точность не определена (достоверность 1) [F85D0FC5], AccurateRip вернул [7F1E06D2] (AR v2)Трек 8 точность не определена (достоверность 1) [C474FFE3], AccurateRip вернул [C34A4ED5] (AR v2)Трек 9 точность не определена (достоверность 1) [2A5F6FA2], AccurateRip вернул [F09E73A5] (AR v2)Трек 10 точность не определена (достоверность 1) [FA9C58AA], AccurateRip вернул [C8376BE0] (AR v2)Трек 11 точность не определена (достоверность 1) [FCF4F551], AccurateRip вернул [FAFC3466] (AR v2)Трек 12 точность не определена (достоверность 1) [8524D233], AccurateRip вернул [2B4679C8] (AR v2)Трек 13 точность не определена (достоверность 1) [4D775644], AccurateRip вернул [F735E63E] (AR v2)Трек 14 точность не определена (достоверность 1) [4E611D3B], AccurateRip вернул [30EFB983] (AR v2)Трек 15 точность не определена (достоверность 1) [916CEB98], AccurateRip вернул [70A91BD4] (AR v2)Трек 16 точность не определена (достоверность 1) [131E7BE5], AccurateRip вернул [324725E6] (AR v2)Трек 17 точность не определена (достоверность 1) [F6E86A3E], AccurateRip вернул [63E7D295] (AR v2)Трек 18 точность не определена (достоверность 1) [3175A7FB], AccurateRip вернул [21B74566] (AR v2)
Ни один трек не прошёл проверки на точность
Конец отчёта
==== Контрольная сумма отчёта 316C6B4F7E7331F2039C279B7E5174221CB50350373560EDE529DE3234F976B6 ====

Содержание индексной карты (.CUE)

REM GENRE ClassicalREM DATE 1999REM DISCID F3128812REM COMMENT "ExactAudioCopy v1.0b6"PERFORMER "Wolfgang Amadeus Mozart"TITLE "Romantic Classic"FILE "Wolfgang Amadeus Mozart - Romantic Classic.flac" WAVE TRACK 01 AUDIO TITLE "Symphony #40 in G-minor, K.550" PERFORMER "Wolfgang Amadeus Mozart" INDEX 01 00:00:00 TRACK 02 AUDIO TITLE "Serenada #13 in G-major 'Eine Kleine Nacht Musik', K.525" PERFORMER "Wolfgang Amadeus Mozart" INDEX 01 07:54:50 TRACK 03 AUDIO TITLE "Concerto for piano and orchestra #20 in D-minor, Don Guan, K.466" PERFORMER "Wolfgang Amadeus Mozart" INDEX 01 13:35:08 TRACK 04 AUDIO TITLE "Fantazy in D-minor, K.551" PERFORMER "Wolfgang Amadeus Mozart" INDEX 01 16:16:68 TRACK 05 AUDIO TITLE "Divertimento in D-major, K.334 Menuetto" PERFORMER "Wolfgang Amadeus Mozart" INDEX 01 20:00:62 TRACK 06 AUDIO TITLE "Divertimento in D-major, K.334 Allegro" PERFORMER "Wolfgang Amadeus Mozart" INDEX 01 24:15:20 TRACK 07 AUDIO TITLE "Concerto for two pianos and orchestra in E-flat major, K.365" PERFORMER "Wolfgang Amadeus Mozart" INDEX 01 25:38:46 TRACK 08 AUDIO TITLE "Sonata for piano #11 in A-major, K.331" PERFORMER "Wolfgang Amadeus Mozart" INDEX 01 33:24:58 TRACK 09 AUDIO TITLE "Concerto for horn and orchestra #4 in E-flat major, K.495" PERFORMER "Wolfgang Amadeus Mozart" INDEX 01 36:56:43 TRACK 10 AUDIO TITLE "Gallimathius musicum, 1766year!" PERFORMER "Wolfgang Amadeus Mozart" INDEX 01 40:38:01 TRACK 11 AUDIO TITLE "The Marriage of Figaro, K.495" PERFORMER "Wolfgang Amadeus Mozart" INDEX 01 41:54:23 TRACK 12 AUDIO TITLE "The magic fluite, K.493" PERFORMER "Wolfgang Amadeus Mozart" INDEX 01 46:21:53 TRACK 13 AUDIO TITLE "Symphony #41 in C-major 'Jupiter', K.551" PERFORMER "Wolfgang Amadeus Mozart" INDEX 01 53:29:58 TRACK 14 AUDIO TITLE "Concerto for piano and orchestra #21 in C-major 'Elvira Madigan', K.467" PERFORMER "Wolfgang Amadeus Mozart" INDEX 01 58:42:33 TRACK 15 AUDIO TITLE "Concerto for fluite and orchestra #2 in D-major, K.314" PERFORMER "Wolfgang Amadeus Mozart" INDEX 01 64:22:13 TRACK 16 AUDIO TITLE "Concerto for piano and orchestra in C-major, K.554" PERFORMER "Wolfgang Amadeus Mozart" INDEX 01 69:48:13 TRACK 17 AUDIO TITLE "'Requiem'. Mass #19 in D-minor, K.555. Lacromosa" PERFORMER "Wolfgang Amadeus Mozart" INDEX 01 73:36:69 TRACK 18 AUDIO TITLE "'Requiem'. Mass #19 in D-minor, K.555. Dies Irae" PERFORMER "Wolfgang Amadeus Mozart" INDEX 01 77:09:19

Лог проверки качества

AUDIOCHECKER v2.0 beta (build 457) - by Dester - opdester@freemail.hu~~~~~~~~~~~~~~~~~~~~~~~~~~~~~~~~~~
Started at: вторник, 23. 06. 2015. - 10:49.0669 files found
01 -===- C:\Users\Тарик\Music\Grigory Sokolov - Complete Recordings\Bach\G. Sokolo-----------------------------------------------------------
Started at: вторник, 23. 06. 2015. - 10:51.491 file found
1 -===- C:\Users\Тарик\Music\Русский праздник\Russian Celebration.flac Extracted successfully Conclusion: this track is CDDA with probability 100% Tempfile successfully deleted.
Finished at: вторник, 23. 06. 2015. - 10:53.46 (operation time: 0:01.57)
-----------------------------------------------------------
Started at: вторник, 23. 06. 2015. - 16:58.291 file found
1 -===- C:\Users\Тарик\Music\Лена Семенова Первая премия Первого Московского конкурса скрипачей имени Паганини\Lena_Semenova.flac Extracted successfully Conclusion: this track is MPEG with probability 90% Tempfile successfully deleted.
Finished at: вторник, 23. 06. 2015. - 17:01.00 (operation time: 0:02.30)
-----------------------------------------------------------
Started at: вторник, 23. 06. 2015. - 17:15.301 file found
1 -===- C:\Users\Тарик\Music\Лена Семёнова Первая премия Первого Московского конкурса скрипачей имени Паганини\Lena_Semenova.flac Extracted successfully Conclusion: this track is MPEG with probability 90% Tempfile successfully deleted.
Finished at: вторник, 23. 06. 2015. - 17:17.45 (operation time: 0:02.14)
-----------------------------------------------------------
Started at: вторник, 23. 06. 2015. - 17:18.411 file found
1 -===- C:\Users\Тарик\Music\Лена Семёнова Первая премия Первого Московского конкурса скрипачей имени Паганини\Lena_Semenova.flac Extracted successfully Conclusion: this track is MPEG with probability 90% Tempfile successfully deleted.
Finished at: вторник, 23. 06. 2015. - 17:20.57 (operation time: 0:02.15)
-----------------------------------------------------------
Started at: вторник, 23. 06. 2015. - 17:23.131 file found
1 -===- C:\Users\Тарик\Music\Лена Семёнова Первая премия Первого Московского конкурса скрипачей имени Паганини\Lena_Semenova.flac Extracted successfully Conclusion: this track is MPEG with probability 90% Tempfile successfully deleted.
Finished at: вторник, 23. 06. 2015. - 17:25.28 (operation time: 0:02.14)
-----------------------------------------------------------
Started at: вторник, 23. 06. 2015. - 17:35.291 file found
1 -===- C:\Users\Тарик\Music\Концерт лауреатов и членов Жюри Первого Московского конкурса скрипачей имени Паганини\Concert_of_prizewinners_and_Jury_members.flac Extracted successfully Conclusion: this track is CDDA with probability 100% Tempfile successfully deleted.
Finished at: вторник, 23. 06. 2015. - 17:38.29 (operation time: 0:02.59)
-----------------------------------------------------------
Started at: вторник, 23. 06. 2015. - 20:01.161 file found
1 -===- C:\Users\Тарик\Music\Лена Семёнова Первая премия Первого Московского конкурса скрипачей имени Паганини\Лена Семёнова - Первый Московский конкурс скрипачей имени паганини.flac Extracted successfully Conclusion: this track is MPEG with probability 91% Tempfile successfully deleted.
Finished at: вторник, 23. 06. 2015. - 20:03.45 (operation time: 0:02.29)
-----------------------------------------------------------
Started at: вторник, 23. 06. 2015. - 20:05.181 file found
1 -===- C:\Users\Тарик\Music\Лена Семёнова Первая премия Первого Московского конкурса скрипачей имени Паганини\Лена Семёнова - Первый Московский конкурс скрипачей имени паганини.flac Extracted successfully Conclusion: this track is MPEG with probability 91% Tempfile successfully deleted.
Finished at: вторник, 23. 06. 2015. - 20:07.42 (operation time: 0:02.23)
-----------------------------------------------------------
Started at: вторник, 23. 06. 2015. - 22:29.431 file found
1 -===- C:\Users\Тарик\Music\Концерт лауреатов и членов Жюри Первого Московского конкурса скрипачей имени Паганини\Концерт лауреатов и членов жюри Первого Московского конкурса скрипачей им. Паганини.flac Extracted successfully Conclusion: this track is CDDA with probability 100% Tempfile successfully deleted.
Finished at: вторник, 23. 06. 2015. - 22:32.41 (operation time: 0:02.58)
-----------------------------------------------------------
Started at: среда, 24. 06. 2015. - 9:44.511 file found
1 -===- C:\Users\Тарик\Music\Георгий Свиридов\Романтическая классика\Георгий Свиридов Романтическая Классика.flac Extracted successfully Conclusion: this track is CDDA with probability 100% Tempfile successfully deleted.
Finished at: среда, 24. 06. 2015. - 9:48.01 (operation time: 0:03.09)
-----------------------------------------------------------
Started at: среда, 24. 06. 2015. - 18:05.181 file found
1 -===- C:\Users\Тарик\Music\Концерт лауреатов и членов Жюри Первого Московского конкурса скрипачей имени Паганини\Концерт лауреатов и членов жюри Первого Московского конкурса скрипачей им. Паганини.flac Extracted successfully Conclusion: this track is CDDA with probability 100% Tempfile successfully deleted.
Finished at: среда, 24. 06. 2015. - 18:08.39 (operation time: 0:03.20)
-----------------------------------------------------------
Started at: среда, 01. 07. 2015. - 23:10.361 file found
1 -===- C:\Users\Тарик\Music\Давид Ойстрах\Русская Исполнительская Школа.flac Extracted successfully Conclusion: this track is CDDA with probability 100% Tempfile successfully deleted.
Finished at: среда, 01. 07. 2015. - 23:13.20 (operation time: 0:02.43)
-----------------------------------------------------------
Started at: четверг, 02. 07. 2015. - 22:51.311 file found
1 -===- C:\Users\Тарик\Music\Леонид Коган\Русская Исполнительская Школа 2.flac Extracted successfully Conclusion: this track is CDDA with probability 86% Tempfile successfully deleted.
Finished at: четверг, 02. 07. 2015. - 22:53.27 (operation time: 0:01.56)
-----------------------------------------------------------
Started at: воскресенье, 05. 07. 2015. - 13:19.321 file found
1 -===- C:\Users\Тарик\Music\Бах\Никому не известный Бах\Artem Agazhanov (piano) - The unknown (to anybody) Bach.flac Extracted successfully Conclusion: this track is MPEG with probability 100% Tempfile successfully deleted.
Finished at: воскресенье, 05. 07. 2015. - 13:21.58 (operation time: 0:02.26)
-----------------------------------------------------------
Started at: вторник, 07. 07. 2015. - 12:56.211 file found
1 -===- C:\Users\Тарик\Music\Старинная музыка\I musicisti dell'imperatore\G.A.P Ensemble - Musicisti dellґ imperatore.flac Extracted successfully Conclusion: this track is CDDA with probability 100% Tempfile successfully deleted.
Finished at: вторник, 07. 07. 2015. - 12:59.18 (operation time: 0:02.56)
-----------------------------------------------------------
Started at: четверг, 09. 07. 2015. - 23:11.251 file found
1 -===- C:\Users\Тарик\Music\Моцарт\Романтическая классика\Wolfgang Amadeus Mozart - Romantic Classic.flac Extracted successfully Conclusion: this track is CDDA with probability 100% Tempfile successfully deleted.
Finished at: четверг, 09. 07. 2015. - 23:14.33 (operation time: 0:03.07)
Доп. информация: На диске есть царапины, были ошибки, но на слух при прослушивании в наушниках проблемные места нельзя выявить.



Показать сообщения:    

Текущее время: 04-Дек 11:15

Часовой пояс: UTC + 3


Вы не можете начинать темы
Вы не можете отвечать на сообщения
Вы не можете редактировать свои сообщения
Вы не можете удалять свои сообщения
Вы не можете голосовать в опросах
Вы не можете прикреплять файлы к сообщениям
Вы не можете скачивать файлы