(Classical) Johannes Brahms - Serenades - Gewandhausorchester, Riccardo Chailly - 2015, FLAC (image+.cue) lossless


 

[Цитировать]

Johannes Brahms - Serenades - Gewandhausorchester, Riccardo Chailly
Жанр: Classical
Год издания диска: 2015
Издатель (лейбл): Decca
Дата записи: 2014
Аудиокодек: FLAC
Тип рипа: image+.cue
Битрейт аудио: lossless
Продолжительность: 65:19
Источник: собственный рип
Наличие сканов в содержимом раздачи: да
Треклист:
Johannes Brahms (1833-1897)
[1]-[6] Serenade No.1 in D major, Op.11
[7]-[11] Serenade No.2 in A major, Op.16
Исполнители:
Gewandhausorchester
Riccardo Chailly

Лог создания рипа

Exact Audio Copy V1.0 beta 3 from 29. August 2011
EAC extraction logfile from 2. July 2015, 22:24
Gewandhausorchester, Riccardo Chailly / Brahms - Serenades
Used drive : HL-DT-STDVDRAM GU70N Adapter: 0 ID: 0
Read mode : SecureUtilize accurate stream : YesDefeat audio cache : YesMake use of C2 pointers : No
Read offset correction : 48Overread into Lead-In and Lead-Out : NoFill up missing offset samples with silence : YesDelete leading and trailing silent blocks : NoNull samples used in CRC calculations : YesUsed interface : Native Win32 interface for Win NT & 2000
Used output format : User Defined EncoderSelected bitrate : 128 kBit/sQuality : HighAdd ID3 tag : NoCommand line compressor : C:\Program Files (x86)\Exact Audio Copy\Flac\flac.exeAdditional command line options : -V -8 -T "Date=%year%" -T "Genre=%genre%" %source%
TOC of the extracted CD
Track | Start | Length | Start sector | End sector --------------------------------------------------------- 1 | 0:00.00 | 11:30.48 | 0 | 51797 2 | 11:30.48 | 6:30.38 | 51798 | 81085 3 | 18:01.11 | 9:56.10 | 81086 | 125795 4 | 27:57.21 | 3:42.59 | 125796 | 142504 5 | 31:40.05 | 2:19.10 | 142505 | 152939 6 | 33:59.15 | 5:09.24 | 152940 | 176138 7 | 39:08.39 | 7:03.41 | 176139 | 207904 8 | 46:12.05 | 2:32.44 | 207905 | 219348 9 | 48:44.49 | 6:27.46 | 219349 | 248419 10 | 55:12.20 | 4:37.13 | 248420 | 269207 11 | 59:49.33 | 5:27.22 | 269208 | 293754
Range status and errors
Selected range
Filename C:\temp\Brahms - Serenades - Gewandhausorchester Leipzig, Chailly\Brahms - Serenades.wav
Peak level 96.1 % Extraction speed 2.1 X Range quality 100.0 % Test CRC 22199814 Copy CRC 22199814 Copy OK
No errors occurred
AccurateRip summary
Track 1 accurately ripped (confidence 7) [EC06C4AD] (AR v2)Track 2 accurately ripped (confidence 7) [07D3425A] (AR v2)Track 3 accurately ripped (confidence 7) [AF59814F] (AR v2)Track 4 accurately ripped (confidence 7) [6B828004] (AR v2)Track 5 accurately ripped (confidence 7) [E9CD3E95] (AR v2)Track 6 accurately ripped (confidence 7) [AC371FFA] (AR v2)Track 7 accurately ripped (confidence 7) [BEFC769D] (AR v2)Track 8 accurately ripped (confidence 7) [57F19397] (AR v2)Track 9 accurately ripped (confidence 7) [AA8DD571] (AR v2)Track 10 accurately ripped (confidence 7) [BFF17DAC] (AR v2)Track 11 accurately ripped (confidence 7) [96951304] (AR v2)
All tracks accurately ripped
End of status report
==== Log checksum E7F091D7718584E140A604E5D0DDC77E2EE0177685318E084ADC394BFA3AAEDF ====



Показать сообщения:    

Текущее время: 06-Дек 13:16

Часовой пояс: UTC + 3


Вы не можете начинать темы
Вы не можете отвечать на сообщения
Вы не можете редактировать свои сообщения
Вы не можете удалять свои сообщения
Вы не можете голосовать в опросах
Вы не можете прикреплять файлы к сообщениям
Вы не можете скачивать файлы