(Classical) Paul Creston · Symphonies Nos. 1–3 (National Symphony Orchestra of Ukraine, Theodore Kuchar) · 2000, FLAC (tracks+.cue) lossless


 

[Цитировать]

Paul Creston
Symphonies Nos. 1–3
Жанр: classical
Страна-производитель диска: США
Год издания диска: 2000
Издатель: Naxos
Номер по каталогу: 8.559034
Дата записи: 2529 декабря 1998
Аудиокодек: FLAC
Тип рипа: tracks+.cue
Битрейт аудио: lossless
Продолжительность: 01:12:37
Источник: скачано с what.cd
Сканы в содержимом раздачи чуточка
Исполнители:
Національний Симфонічний Оркестр України
Theodore Kuchar (дирижёр)

Треклист

Symphony No. 1, Op. 20 (1940)
01. I. With Majesty (6:30)
02. II. With Humour (5:34)
03. III. With Serenity (7:15)
04. IV. With Gaiety (4:15)
Symphony No. 2, Op. 35 (1944)
05. I. Introduction and Song (Slow, with deep emotion – Moderately slow) (11:58)
06. II. Interlude and Dance (Moderately slow – Moderately fast) (10:27)
Symphony No. 3 “Three Mysteries”, Op. 48 (1950)
07. I. The Nativity (Lento – Allegro moderato) (9:57)
08. II. The Crucifixion (Adagio) (8:31)
09. III. The Resurrection (Lento moderato – Allegro ma calmo) (8:10)

Лог создания рипа

X Lossless Decoder version 20130127 (142.3)
XLD extraction logfile from 2013-03-28 09:28:38 -0600
National Symphony of Ukraine / Creston: Symphonies Nos. 1-3
Used drive : HL-DT-ST DVDRW GS31N (revision TA17)Media type : Pressed CD
Ripper mode : XLD Secure RipperDisable audio cache : OK for the drive with a cache less than 1375KiBMake use of C2 pointers : NORead offset correction : 667Max retry count : 100Gap status : Analyzed, Appended (except HTOA)
TOC of the extracted CD Track | Start | Length | Start sector | End sector --------------------------------------------------------- 1 | 00:00:00 | 06:30:22 | 0 | 29271 2 | 06:30:22 | 05:33:53 | 29272 | 54299 3 | 12:04:00 | 07:15:00 | 54300 | 86924 4 | 19:19:00 | 04:15:37 | 86925 | 106086 5 | 23:34:37 | 11:58:30 | 106087 | 159966 6 | 35:32:67 | 10:26:70 | 159967 | 206986 7 | 45:59:62 | 09:56:47 | 206987 | 251733 8 | 55:56:34 | 08:31:23 | 251734 | 290081 9 | 64:27:57 | 08:09:45 | 290082 | 326801
List of alternate offset correction values # | Absolute | Relative | Confidence ------------------------------------------ 1 | 29 | -638 | 5
AccurateRip Summary (DiscID: 001712dc-00adf6d9-7b110509) Track 01 : OK (v1, confidence 10/15) Track 02 : OK (v1, confidence 10/15) Track 03 : OK (v1, confidence 10/15) Track 04 : OK (v1, confidence 10/15) Track 05 : OK (v1, confidence 10/15) Track 06 : OK (v1, confidence 10/15) Track 07 : OK (v1, confidence 10/15) Track 08 : OK (v1, confidence 9/14) Track 09 : OK (v1, confidence 10/15) ->All tracks accurately ripped.
All Tracks Album gain : 1.18 dB Peak : 0.942261 Statistics Read error : 0 Jitter error (maybe fixed) : 0 Retry sector count : 0 Damaged sector count : 0
Track 01 Filename : /Volumes/Torrent and CD Archive/Torrents/National Symphony Orchestra of Ukraine - Creston-Symphonies Nos. 1-3 (2000) FLAC/01 National Symphony of Ukraine - Symphony No. 1 I. With Majesty.flac Pre-gap length : 00:02:00
Track gain : -0.84 dB Peak : 0.866119 CRC32 hash (test run) : EEE50B7F CRC32 hash : EEE50B7F CRC32 hash (skip zero) : 035462EA AccurateRip v1 signature : 47E25237 AccurateRip v2 signature : 73B5879D ->Accurately ripped (v1, confidence 10/15) Statistics Read error : 0 Jitter error (maybe fixed) : 0 Retry sector count : 0 Damaged sector count : 0
Track 02 Filename : /Volumes/Torrent and CD Archive/Torrents/National Symphony Orchestra of Ukraine - Creston-Symphonies Nos. 1-3 (2000) FLAC/02 National Symphony of Ukraine - Symphony No. 1 II. With Humour.flac Pre-gap length : 00:02:47
Track gain : 2.70 dB Peak : 0.829163 CRC32 hash (test run) : D13F46C4 CRC32 hash : D13F46C4 CRC32 hash (skip zero) : 595F8F3A AccurateRip v1 signature : E330F9FF AccurateRip v2 signature : 5821A569 ->Accurately ripped (v1, confidence 10/15) Statistics Read error : 0 Jitter error (maybe fixed) : 0 Retry sector count : 0 Damaged sector count : 0
Track 03 Filename : /Volumes/Torrent and CD Archive/Torrents/National Symphony Orchestra of Ukraine - Creston-Symphonies Nos. 1-3 (2000) FLAC/03 National Symphony of Ukraine - Symphony No. 1 III. With Serenity.flac Pre-gap length : 00:02:08
Track gain : 1.51 dB Peak : 0.580597 CRC32 hash (test run) : 6E3DC43F CRC32 hash : 6E3DC43F CRC32 hash (skip zero) : 36E5242E AccurateRip v1 signature : 5A0038F8 AccurateRip v2 signature : 94D98CDD ->Accurately ripped (v1, confidence 10/15) Statistics Read error : 0 Jitter error (maybe fixed) : 0 Retry sector count : 0 Damaged sector count : 0
Track 04 Filename : /Volumes/Torrent and CD Archive/Torrents/National Symphony Orchestra of Ukraine - Creston-Symphonies Nos. 1-3 (2000) FLAC/04 National Symphony of Ukraine - Symphony No. 1 IV. With Gaiety.flac Pre-gap length : 00:03:28
Track gain : -0.47 dB Peak : 0.756500 CRC32 hash (test run) : ADCA7554 CRC32 hash : ADCA7554 CRC32 hash (skip zero) : C52FA4BD AccurateRip v1 signature : C47F6D8F AccurateRip v2 signature : D1D9A034 ->Accurately ripped (v1, confidence 10/15) Statistics Read error : 0 Jitter error (maybe fixed) : 0 Retry sector count : 0 Damaged sector count : 0
Track 05 Filename : /Volumes/Torrent and CD Archive/Torrents/National Symphony Orchestra of Ukraine - Creston-Symphonies Nos. 1-3 (2000) FLAC/05 National Symphony of Ukraine - Symphony No. 2 I. Introduction and Song (Slow, with deep emotion - Moderately slow).flac Pre-gap length : 00:02:60
Track gain : 2.99 dB Peak : 0.660309 CRC32 hash (test run) : EC62994B CRC32 hash : EC62994B CRC32 hash (skip zero) : 90F57A28 AccurateRip v1 signature : 946C585D AccurateRip v2 signature : 6CD9C24C ->Accurately ripped (v1, confidence 10/15) Statistics Read error : 0 Jitter error (maybe fixed) : 0 Retry sector count : 0 Damaged sector count : 0
Track 06 Filename : /Volumes/Torrent and CD Archive/Torrents/National Symphony Orchestra of Ukraine - Creston-Symphonies Nos. 1-3 (2000) FLAC/06 National Symphony of Ukraine - Symphony No. 2 II. Interlude and Dance (Moderately slow - Moderately fast).flac Pre-gap length : 00:02:37
Track gain : 0.62 dB Peak : 0.942261 CRC32 hash (test run) : 467B6FA1 CRC32 hash : 467B6FA1 CRC32 hash (skip zero) : EA80AF02 AccurateRip v1 signature : A80DD777 AccurateRip v2 signature : 91AAFF47 ->Accurately ripped (v1, confidence 10/15) Statistics Read error : 0 Jitter error (maybe fixed) : 0 Retry sector count : 0 Damaged sector count : 0
Track 07 Filename : /Volumes/Torrent and CD Archive/Torrents/National Symphony Orchestra of Ukraine - Creston-Symphonies Nos. 1-3 (2000) FLAC/07 National Symphony of Ukraine - Symphony No. 3 ("Three Mysteries") I. The Nativity (Lento - Allegro moderato).flac Pre-gap length : 00:02:35
Track gain : 0.85 dB Peak : 0.765350 CRC32 hash (test run) : 97E7E821 CRC32 hash : 97E7E821 CRC32 hash (skip zero) : 60C1A97B AccurateRip v1 signature : 56C3B797 AccurateRip v2 signature : 480241CD ->Accurately ripped (v1, confidence 10/15) Statistics Read error : 0 Jitter error (maybe fixed) : 0 Retry sector count : 0 Damaged sector count : 0
Track 08 Filename : /Volumes/Torrent and CD Archive/Torrents/National Symphony Orchestra of Ukraine - Creston-Symphonies Nos. 1-3 (2000) FLAC/08 National Symphony of Ukraine - Symphony No. 3 ("Three Mysteries") II. The Crucifixion (Adagio).flac Pre-gap length : 00:02:52
Track gain : 4.00 dB Peak : 0.902039 CRC32 hash (test run) : CCBE4D04 CRC32 hash : CCBE4D04 CRC32 hash (skip zero) : 710DA547 AccurateRip v1 signature : A366887A AccurateRip v2 signature : 0960D293 ->Accurately ripped (v1, confidence 9/14) Statistics Read error : 0 Jitter error (maybe fixed) : 0 Retry sector count : 0 Damaged sector count : 0
Track 09 Filename : /Volumes/Torrent and CD Archive/Torrents/National Symphony Orchestra of Ukraine - Creston-Symphonies Nos. 1-3 (2000) FLAC/09 National Symphony of Ukraine - Symphony No. 3 ("Three Mysteries") III. The Resurrection (Lento moderato - Allegro ma calmo).flac Pre-gap length : 00:01:15
Track gain : 1.89 dB Peak : 0.909302 CRC32 hash (test run) : 3F88881D CRC32 hash : 3F88881D CRC32 hash (skip zero) : 2F114134 AccurateRip v1 signature : D968C0C6 AccurateRip v2 signature : 63AE33E8 ->Accurately ripped (v1, confidence 10/15) Statistics Read error : 0 Jitter error (maybe fixed) : 0 Retry sector count : 0 Damaged sector count : 0
No errors occurred
End of status report

Содержание индексной карты (.CUE)

TITLE "Symphonies Nos. 1–3"PERFORMER "National Symphony Orchestra of Ukraine · Theodore Kuchar"REM DATE "2000"REM DISCID 7B110509REM REPLAYGAIN_ALBUM_GAIN 1.18 dBREM REPLAYGAIN_ALBUM_PEAK 0.942261FILE "01. I. With Majesty.flac" WAVE TRACK 01 AUDIO TITLE "I. With Majesty" ISRC HKI199924301 REM REPLAYGAIN_TRACK_GAIN -0.84 dB REM REPLAYGAIN_TRACK_PEAK 0.866119 INDEX 01 00:00:00 TRACK 02 AUDIO TITLE "II. With Humour" ISRC HKI199924302 REM REPLAYGAIN_TRACK_GAIN 2.70 dB REM REPLAYGAIN_TRACK_PEAK 0.829163 INDEX 00 06:27:50FILE "02. II. With Humour.flac" WAVE INDEX 01 00:00:00 TRACK 03 AUDIO TITLE "III. With Serenity" ISRC HKI199924303 REM REPLAYGAIN_TRACK_GAIN 1.51 dB REM REPLAYGAIN_TRACK_PEAK 0.580597 INDEX 00 05:31:45FILE "03. III. With Serenity.flac" WAVE INDEX 01 00:00:00 TRACK 04 AUDIO TITLE "IV. With Gaiety" ISRC HKI199924304 REM REPLAYGAIN_TRACK_GAIN -0.47 dB REM REPLAYGAIN_TRACK_PEAK 0.756500 INDEX 00 07:11:47FILE "04. IV. With Gaiety.flac" WAVE INDEX 01 00:00:00 TRACK 05 AUDIO TITLE "I. Introduction and Song (Slow, with deep emotion – Moderately slow)" ISRC HKI199924305 REM REPLAYGAIN_TRACK_GAIN 2.99 dB REM REPLAYGAIN_TRACK_PEAK 0.660309 INDEX 00 04:12:52FILE "05. I. Introduction and Song (Slow, with deep emotion – Moderately slow).flac" WAVE INDEX 01 00:00:00 TRACK 06 AUDIO TITLE "II. Interlude and Dance (Moderately slow – Moderately fast)" ISRC HKI199924306 REM REPLAYGAIN_TRACK_GAIN 0.62 dB REM REPLAYGAIN_TRACK_PEAK 0.942261 INDEX 00 11:55:68FILE "06. II. Interlude and Dance (Moderately slow – Moderately fast).flac" WAVE INDEX 01 00:00:00 TRACK 07 AUDIO TITLE "I. The Nativity (Lento – Allegro moderato)" ISRC HKI199924307 REM REPLAYGAIN_TRACK_GAIN 0.85 dB REM REPLAYGAIN_TRACK_PEAK 0.765350 INDEX 00 10:24:35FILE "07. I. The Nativity (Lento – Allegro moderato).flac" WAVE INDEX 01 00:00:00 TRACK 08 AUDIO TITLE "II. The Crucifixion (Adagio)" ISRC HKI199924308 REM REPLAYGAIN_TRACK_GAIN 4.00 dB REM REPLAYGAIN_TRACK_PEAK 0.902039 INDEX 00 09:53:70FILE "08. II. The Crucifixion (Adagio).flac" WAVE INDEX 01 00:00:00 TRACK 09 AUDIO TITLE "III. The Resurrection (Lento moderato – Allegro ma calmo)" ISRC HKI199924309 REM REPLAYGAIN_TRACK_GAIN 1.89 dB REM REPLAYGAIN_TRACK_PEAK 0.909302 INDEX 00 08:30:08FILE "09. III. The Resurrection (Lento moderato – Allegro ma calmo).flac" WAVE INDEX 01 00:00:00



Показать сообщения:    

Текущее время: 10-Дек 02:11

Часовой пояс: UTC + 3


Вы не можете начинать темы
Вы не можете отвечать на сообщения
Вы не можете редактировать свои сообщения
Вы не можете удалять свои сообщения
Вы не можете голосовать в опросах
Вы не можете прикреплять файлы к сообщениям
Вы не можете скачивать файлы