(Orchestral) Gustav Mahler - Symphonie Nr.7 (Wiener Symphoniker - Bruno Maderna) - Haydn House - 2005, FLAC (image+.cue) lossless


 

[Цитировать]

MAHLER SYMPHONY №7
Bruno Maderna
Vienna Symphony Orchestra
-
-
- Жанр: Orchestral
Страна-производитель диска: USA
Год издания диска: 2005
Издатель (лейбл): Haydn House
Дата записи: 27.05.1967
Аудиокодек: FLAC
Тип рипа: image+.cue
Битрейт аудио: lossless
Продолжительность: 75'35''
Источник: собственный рип
Наличие сканов в содержимом раздачи: да
Треклист:
G.Mahler - Symphonie Nr.7
[01] I. Langsam - Allegro risoluto, ma non troppo
[02] II. Nachtmusik. Allegro moderato
[03] III. Scherzo. Schattenhaft
[04] IV. Nachtmusik. Allegro amoroso
[05] V. Rondo-Finale. Tempo I (Allegro ordinario)
Исполнители:
Wiener Symphoniker - Bruno Maderna
-

Лог создания рипа

Exact Audio Copy V1.0 beta 3 from 29. August 2011
EAC extraction logfile from 2. March 2014, 20:22
Wiener Symphoniker - Bruno Maderna / Gustav Mahler - Symphonie Nr.7
Used drive : COMPAQ CD-ROM LTN403 Adapter: 0 ID: 0
Read mode : SecureUtilize accurate stream : YesDefeat audio cache : YesMake use of C2 pointers : No
Read offset correction : -1164Overread into Lead-In and Lead-Out : NoFill up missing offset samples with silence : YesDelete leading and trailing silent blocks : NoNull samples used in CRC calculations : YesUsed interface : Native Win32 interface for Win NT & 2000
Used output format : User Defined EncoderSelected bitrate : 1024 kBit/sQuality : HighAdd ID3 tag : NoCommand line compressor : C:\Program Files\FLAC\flac.exeAdditional command line options : -T"COMMENT=rip by el coronel" -8 -V %source%
TOC of the extracted CD
Track | Start | Length | Start sector | End sector --------------------------------------------------------- 1 | 0:00.00 | 19:13.43 | 0 | 86517 2 | 19:13.43 | 15:29.06 | 86518 | 156198 3 | 34:42.49 | 8:35.65 | 156199 | 194888 4 | 43:18.39 | 15:04.63 | 194889 | 262751 5 | 58:23.27 | 17:11.64 | 262752 | 340140
Range status and errors
Selected range
Filename D:\Gustav Mahler - Symphonie Nr.7 (Maderna).wav
Peak level 93.2 % Extraction speed 3.0 X Range quality 100.0 % Test CRC BA655FD0 Copy CRC BA655FD0 Copy OK
No errors occurred
End of status report
==== Log checksum D4A878927C58947A18A72D97CD1A961F64F0F05F24C05BE58E5F4CF34C53ADA5 ====

Содержание индексной карты (.CUE)

REM GENRE ClassicalREM DATE 2013REM DISCID 3111B705REM COMMENT "ExactAudioCopy v1.0b3"PERFORMER "Wiener Symphoniker - Bruno Maderna"TITLE "Gustav Mahler - Symphonie Nr.7"FILE "Gustav Mahler - Symphonie Nr.7 (Maderna).flac" WAVE TRACK 01 AUDIO TITLE "I. Langsam - Allegro risoluto, ma non troppo" PERFORMER "Wiener Symphoniker - Bruno Maderna" INDEX 01 00:00:00 TRACK 02 AUDIO TITLE "II. Nachtmusik. Allegro moderato" PERFORMER "Wiener Symphoniker - Bruno Maderna" INDEX 01 19:13:43 TRACK 03 AUDIO TITLE "III. Scherzo. Schattenhaft" PERFORMER "Wiener Symphoniker - Bruno Maderna" INDEX 00 34:42:48 INDEX 01 34:42:49 TRACK 04 AUDIO TITLE "IV. Nachtmusik. Allegro amoroso" PERFORMER "Wiener Symphoniker - Bruno Maderna" INDEX 00 43:18:32 INDEX 01 43:18:39 TRACK 05 AUDIO TITLE "V. Rondo-Finale. Tempo I (Allegro ordinario)" PERFORMER "Wiener Symphoniker - Bruno Maderna" INDEX 00 58:23:25 INDEX 01 58:23:27
-Доп. информация: альтернативная реставрация исторической записи 7-ой Симфонии Малера в исполнении Венского Симфонического Оркестра под управлением Бруно Мадерна. Концерт проходил в рамках Wiener Festwochen 1967, где прозвучали все симфонии композитора с ведущими дирижёрами того времени.
Первое издание записи.



Показать сообщения:    

Текущее время: 08-Дек 07:07

Часовой пояс: UTC + 3


Вы не можете начинать темы
Вы не можете отвечать на сообщения
Вы не можете редактировать свои сообщения
Вы не можете удалять свои сообщения
Вы не можете голосовать в опросах
Вы не можете прикреплять файлы к сообщениям
Вы не можете скачивать файлы