(Classical) Моисей Вайнберг - Симфониетты №№ 1 и 2; Симфония № 7 - Государственный академический симфонический оркестр СССР, Евгений Светланов, Московский камерный оркестр, Рудольф Баршай - 2013, FLAC (image+.cue) lossless


 

[Цитировать]

Моисей Вайнберг - Симфониетты №№ 1 и 2; Симфония № 7 - Государственный академический симфонический оркестр СССР, Евгений Светланов, Московский камерный оркестр, Рудольф Баршай
Жанр: Classical
Страна-производитель диска: Россия
Год издания диска: 2013
Издатель (лейбл): Мелодия
Номер по каталогу: MEL CD 10 02180
Дата записи: 1962, 1966, 1967
Аудиокодек: FLAC
Тип рипа: image+.cue
Битрейт аудио: lossless
Продолжительность: 66:32
Источник: собственный рип
Наличие сканов в содержимом раздачи: да
Треклист:
Моисей Вайнберг (1919-1996)
[1]-[4] Симфониетта №1, Op.41 (1948)
[5]-[8] Симфониетта №2, Op.74 (1960)
[9]-[13] Симфония №7 для струнных и клавесина, Op.81 (1964)
Исполнители:
Государственный академический симфонический оркестр СССР
Евгений Светланов
([1]-[4])
Московский камерный оркестр
Рудольф Баршай
([5]-[13])

Лог создания рипа

Exact Audio Copy V1.0 beta 3 from 29. August 2011
EAC extraction logfile from 11. January 2015, 18:41
- / Weinberg - Sinfoniettas; Symphony No.7
Used drive : HL-DT-STDVDRAM GU70N Adapter: 0 ID: 0
Read mode : SecureUtilize accurate stream : YesDefeat audio cache : YesMake use of C2 pointers : No
Read offset correction : 48Overread into Lead-In and Lead-Out : NoFill up missing offset samples with silence : YesDelete leading and trailing silent blocks : NoNull samples used in CRC calculations : YesUsed interface : Native Win32 interface for Win NT & 2000
Used output format : User Defined EncoderSelected bitrate : 128 kBit/sQuality : HighAdd ID3 tag : NoCommand line compressor : C:\Program Files (x86)\Exact Audio Copy\Flac\flac.exeAdditional command line options : -V -8 -T "Date=%year%" -T "Genre=%genre%" %source%
TOC of the extracted CD
Track | Start | Length | Start sector | End sector --------------------------------------------------------- 1 | 0:00.00 | 4:58.38 | 0 | 22387 2 | 4:58.38 | 8:47.70 | 22388 | 61982 3 | 13:46.33 | 3:20.49 | 61983 | 77031 4 | 17:07.07 | 6:13.73 | 77032 | 105079 5 | 23:21.05 | 3:27.06 | 105080 | 120610 6 | 26:48.11 | 4:02.01 | 120611 | 138761 7 | 30:50.12 | 4:06.36 | 138762 | 157247 8 | 34:56.48 | 5:16.68 | 157248 | 181015 9 | 40:13.41 | 5:00.03 | 181016 | 203518 10 | 45:13.44 | 4:42.20 | 203519 | 224688 11 | 49:55.64 | 4:15.70 | 224689 | 243883 12 | 54:11.59 | 2:17.40 | 243884 | 254198 13 | 56:29.24 | 10:00.71 | 254199 | 299269
Range status and errors
Selected range
Filename C:\temp\Weinberg - Sinfoniettas; Symphony No.7\Weinberg - Sinfoniettas; Symphony No.7.wav
Peak level 79.5 % Extraction speed 2.1 X Range quality 100.0 % Test CRC F02F1245 Copy CRC F02F1245 Copy OK
No errors occurred
AccurateRip summary
Track 1 not present in databaseTrack 2 not present in databaseTrack 3 not present in databaseTrack 4 not present in databaseTrack 5 not present in databaseTrack 6 not present in databaseTrack 7 not present in databaseTrack 8 not present in databaseTrack 9 not present in databaseTrack 10 not present in databaseTrack 11 not present in databaseTrack 12 not present in databaseTrack 13 not present in database
None of the tracks are present in the AccurateRip database
End of status report
==== Log checksum 7782B47E1022C443DF5802946C437FC9F17C7E4EEA4A2388373DEA979807A100 ====



Показать сообщения:    

Текущее время: 11-Дек 16:50

Часовой пояс: UTC + 3


Вы не можете начинать темы
Вы не можете отвечать на сообщения
Вы не можете редактировать свои сообщения
Вы не можете удалять свои сообщения
Вы не можете голосовать в опросах
Вы не можете прикреплять файлы к сообщениям
Вы не можете скачивать файлы