(Orchestral) Gustav Mahler - Symphonie Nr.7 (Toronto Symphony Orchestra - Hermann Scherchen) - 1991, FLAC (image+.cue) lossless


 

[Цитировать]

Gustav Mahler
Symphonie Nr.7

Toronto 1965 • Live
Hermann Scherchen
-
-
- Жанр: Orchestral
Страна-производитель диска: USA
Год издания диска: 1991
Издатель (лейбл): M&A
Дата записи: 25.04.1965
Аудиокодек: FLAC
Тип рипа: image+.cue
Битрейт аудио: lossless
Продолжительность: 69'47''
Источник: собственный рип
Наличие сканов в содержимом раздачи: да
Треклист:
G.Mahler - Symphonie Nr.7:
[01] I. Langsam - Allegro
[02] II. Nachtmusik 1
[03] III. Scherzo
[04] IV. Nachtmusik 2
[05] V. Finale (Rondo)
Исполнители:
Toronto Symphony Orchestra - Hermann Scherchen
-

Лог создания рипа

Exact Audio Copy V1.0 beta 3 from 29. August 2011
EAC extraction logfile from 2. April 2014, 21:50
Toronto Symphony Orchestra - Hermann Scherchen / Mahler - Symphony No.7
Used drive : COMPAQ CD-ROM LTN403 Adapter: 0 ID: 0
Read mode : SecureUtilize accurate stream : YesDefeat audio cache : YesMake use of C2 pointers : No
Read offset correction : -1164Overread into Lead-In and Lead-Out : NoFill up missing offset samples with silence : YesDelete leading and trailing silent blocks : NoNull samples used in CRC calculations : YesUsed interface : Native Win32 interface for Win NT & 2000
Used output format : User Defined EncoderSelected bitrate : 1024 kBit/sQuality : HighAdd ID3 tag : NoCommand line compressor : C:\Program Files\FLAC\flac.exeAdditional command line options : -T"COMMENT=rip by el coronel" -8 -V %source%
TOC of the extracted CD
Track | Start | Length | Start sector | End sector --------------------------------------------------------- 1 | 0:00.00 | 18:40.72 | 0 | 84071 2 | 18:40.72 | 12:57.28 | 84072 | 142374 3 | 31:38.25 | 8:23.50 | 142375 | 180149 4 | 40:02.00 | 13:04.25 | 180150 | 238974 5 | 53:06.25 | 16:40.70 | 238975 | 314044
Range status and errors
Selected range
Filename D:\Mahler - Symphony No.7 (Toronto - Scherchen).wav
Peak level 100.0 % Extraction speed 3.0 X Range quality 100.0 % Test CRC 385A9896 Copy CRC 385A9896 Copy OK
No errors occurred
End of status report
==== Log checksum CEB524B62C20C898B28D20A376A41039D7624AFF6B6A73FCAFC27A58A621C024 ====

Содержание индексной карты (.CUE)

REM GENRE ClassicalREM DATE 1991REM DISCID 30105B05REM COMMENT "ExactAudioCopy v1.0b3"PERFORMER "Toronto Symphony Orchestra - Hermann Scherchen"TITLE "Mahler - Symphony No.7"FILE "Mahler - Symphony No.7 (Toronto - Scherchen).flac" WAVE TRACK 01 AUDIO TITLE "I. Langsam - Allegro" PERFORMER "Toronto Symphony Orchestra - Hermann Scherchen" INDEX 01 00:00:00 TRACK 02 AUDIO TITLE "II. Nachtmusik 1" PERFORMER "Toronto Symphony Orchestra - Hermann Scherchen" INDEX 01 18:40:72 TRACK 03 AUDIO TITLE "III. Scherzo" PERFORMER "Toronto Symphony Orchestra - Hermann Scherchen" INDEX 01 31:38:25 TRACK 04 AUDIO TITLE "IV. Nachtmusik 2" PERFORMER "Toronto Symphony Orchestra - Hermann Scherchen" INDEX 00 40:01:74 INDEX 01 40:02:00 TRACK 05 AUDIO TITLE "V. Finale (Rondo)" PERFORMER "Toronto Symphony Orchestra - Hermann Scherchen" INDEX 00 53:06:24 INDEX 01 53:06:25



Показать сообщения:    

Текущее время: 20-Янв 15:00

Часовой пояс: UTC + 3


Вы не можете начинать темы
Вы не можете отвечать на сообщения
Вы не можете редактировать свои сообщения
Вы не можете удалять свои сообщения
Вы не можете голосовать в опросах
Вы не можете прикреплять файлы к сообщениям
Вы не можете скачивать файлы