(Classical, Orchestral) Gustav Mahler (Густав Малер) - Symphony No. 7 (The Cleveland Orchestra, Pierre Boulez) - 1996, FLAC (image+.cue), lossless


 

[Цитировать]

Gustav Mahler (Густав Малер) - Symphony No. 7 - Boulez
Жанр: Classical, Orchestral
Страна-производитель диска: Germany
Год издания диска: 1996
Издатель (лейбл): Deutsche Grammophon
Номер по каталогу: 447 756-2
Дата записи: 11/1994
Аудиокодек: FLAC
Тип рипа: image+.cue
Битрейт аудио: lossless
Продолжительность: 74.53
Источник: собственный рип
Наличие сканов в содержимом раздачи: да
Исполнители: The Cleveland Orchestra, Pierre Boulez

Треклист:

01. I. Langsam (Adagio)
02. II. Nachtmusik. Allegro moderato
03. III. Scherzo. Schattenhaft - Trio
04. IV. Nachtmusik. Andante amoroso
05. V. Rondo-Finale. Tempo I (Allegro ordinario)
Total 74.53

Лог создания рипа:

Exact Audio Copy V1.0 beta 3 from 29. August 2011
Отчёт EAC об извлечении, выполненном 24. июня 2015, 0:20
Pierre Boulez / Mahler - Symphony No. 7
Дисковод: Optiarc DVD RW AD-7260S Adapter: 0 ID: 1
Режим чтения : ДостоверностьИспользование точного потока : ДаОтключение кэша аудио : ДаИспользование указателей C2 : Нет
Коррекция смещения при чтении : 48Способность читать области Lead-in и Lead-out : НетЗаполнение пропущенных сэмплов тишиной : ДаУдаление блоков с тишиной в начале и конце : НетПри вычислениях CRC использовались нулевые сэмплы : ДаИнтерфейс : Встроенный Win32-интерфейс для Win NT/2000
Выходной формат : Пользовательский кодировщикВыбранный битрейт : 896 kBit/sКачество : ВысокийДобавление ID3-тега : НетУтилита сжатия : C:\Program Files\FLAC Frontend\tools\flac.exeДополнительные параметры : -V -8 -T "Date=%year%" -T "Genre=%genre%" %source%
TOC извлечённого CD
Трек | Старт | Длительность | Начальный сектор | Конечный сектор --------------------------------------------------------------------- 1 | 0:00.33 | 23:25.00 | 33 | 105407 2 | 23:25.33 | 13:56.00 | 105408 | 168107 3 | 37:21.33 | 9:14.00 | 168108 | 209657 4 | 46:35.33 | 10:38.00 | 209658 | 257507 5 | 57:13.33 | 17:42.00 | 257508 | 337157
Характеристики диапазона извлечения и сообщения об ошибках
Выбранный диапазон
Имя файла D:\EAC\Мои раздачи\Mahler - Symphony No. 7 - Boulez\Pierre Boulez - Mahler - Symphony No. 7.wav
Пиковый уровень 99.9 % Скорость извлечения 4.5 X Качество диапазона 100.0 % CRC теста 613BB470 CRC копии 613BB470 Копирование... OK
Ошибок не произошло
AccurateRip: сводка
Трек 1 : извлечено точно (доверие 21) [0D4206B9] (AR v2)Трек 2 : извлечено точно (доверие 21) [7A0FB256] (AR v2)Трек 3 : извлечено точно (доверие 21) [D153BAA2] (AR v2)Трек 4 : извлечено точно (доверие 21) [F39CB44B] (AR v2)Трек 5 : извлечено точно (доверие 21) [9666B2A7] (AR v2)
Все треки извлечены точно
Конец отчёта
==== Контрольная сумма отчёта 0C1C7CE74FC4ED3DAF1A96F42AFDE405B1089A79ABBA67026E343488A362CD98 ====



Показать сообщения:    

Текущее время: 02-Дек 21:14

Часовой пояс: UTC + 3


Вы не можете начинать темы
Вы не можете отвечать на сообщения
Вы не можете редактировать свои сообщения
Вы не можете удалять свои сообщения
Вы не можете голосовать в опросах
Вы не можете прикреплять файлы к сообщениям
Вы не можете скачивать файлы