(Classical) Михаил Глинка. Любимые романсы и мелодии... - Оркестр "Боян" - 2004, FLAC (image+.cue) lossless


 

[Цитировать]

Михаил Глинка. Любимые романсы и мелодии... - Государственный Академический Русский Концертный Оркестр "Боян"
Жанр: Classical
Страна-производитель диска: Россия
Год издания диска: 2004
Издатель (лейбл): АГЕНСТВО "ЗВУК"
Номер по каталогу: ZV 10-04275
Дата записи: 2004
Аудиокодек: FLAC
Тип рипа: image+.cue
Битрейт аудио: lossless
Продолжительность: 79:27
Источник: собственный рип
Наличие сканов в содержимом раздачи: да
Треклист:
01. Увертюра к опере "Руслан и людмила"
02. Я помню чудное мгновенье (Пушкин)
03. Не искушай (Баратынский)
04. Признание (Пушкин)
05. В крови горит огонь желанья (Пушкин)
06. Адель (Пушкин)
07. Венецианская ночь (Козлов)
08. Северная звезда (Ростопчина)
09. Вальс-фантазия
10. Я здесь, Инезилья (Пушкин)
11. Сомнение (Кукольник)
12. Ночной смотр (Жуковский)
13. Цыганская песня (Дмитриев)
14. Мэри (Пушкин)
15. Победитель (Жуковский)
16. Попутная
"Руслан и Людмила"
17. Песня Бояна (Пушкин)
18. Марш Черномора
19. Рондо Фарлафа (Пушкин)
"Иван Сусанин"
20. Ария Сусанина
21. Славься
Исполнители:
Государственный Академический Русский Концертный Оркестр "Боян"
Художественный руководитель и дирижер - Анатолий Полетаев
Солисты:
Наталия Васильева (3,13), Давид Гвинианидзе (10), Алексей Кудря (2,3), Денис Макаров (11,12), Евгений Поликанby (4,5,14-17), Дмитрий Степанович (19,20), Ольга Терновская (6-8)

Лог создания рипа

Exact Audio Copy V1.0 beta 3 from 29. August 2011
Отчёт EAC об извлечении, выполненном 5. апреля 2015, 11:09
Оркестр "Боян" / Михаил Глинка. Любимые романсы и мелодии...
Дисковод: _NEC DVD_RW ND-3550A Adapter: 3 ID: 0
Режим чтения : ДостоверностьИспользование точного потока : ДаОтключение кэша аудио : ДаИспользование указателей C2 : Нет
Коррекция смещения при чтении : 48Способность читать области Lead-in и Lead-out : НетЗаполнение пропущенных сэмплов тишиной : ДаУдаление блоков с тишиной в начале и конце : НетПри вычислениях CRC использовались нулевые сэмплы : ДаИнтерфейс : Встроенный Win32-интерфейс для Win NT/2000
Выходной формат : Внутренние WAV-операцииФормат сэмплов : 44.100 Гц; 16 бит; стерео
TOC извлечённого CD
Трек | Старт | Длительность | Начальный сектор | Конечный сектор --------------------------------------------------------------------- 1 | 0:00.00 | 4:34.24 | 0 | 20573 2 | 4:34.24 | 4:29.52 | 20574 | 40800 3 | 9:04.01 | 4:58.20 | 40801 | 63170 4 | 14:02.21 | 2:04.59 | 63171 | 72529 5 | 16:07.05 | 1:38.45 | 72530 | 79924 6 | 17:45.50 | 2:48.06 | 79925 | 92530 7 | 20:33.56 | 2:14.20 | 92531 | 102600 8 | 22:48.01 | 3:43.35 | 102601 | 119360 9 | 26:31.36 | 9:46.56 | 119361 | 163366 10 | 36:18.17 | 2:08.33 | 163367 | 172999 11 | 38:26.50 | 5:21.71 | 173000 | 197145 12 | 43:48.46 | 6:14.71 | 197146 | 225266 13 | 50:03.42 | 3:44.17 | 225267 | 242083 14 | 53:47.59 | 2:03.02 | 242084 | 251310 15 | 55:50.61 | 2:19.18 | 251311 | 261753 16 | 58:10.04 | 2:58.26 | 261754 | 275129 17 | 61:08.30 | 4:30.37 | 275130 | 295416 18 | 65:38.67 | 3:02.62 | 295417 | 309128 19 | 68:41.54 | 3:16.07 | 309129 | 323835 20 | 71:57.61 | 5:50.66 | 323836 | 350151 21 | 77:48.52 | 1:39.06 | 350152 | 357582
Характеристики диапазона извлечения и сообщения об ошибках
Выбранный диапазон
Имя файла D:\Downloads\Оркестр ''Боян'' - Михаил Глинка. Любимые романсы и мелодии....wav
Пиковый уровень 98.1 % Скорость извлечения 5.9 X Качество диапазона 100.0 % CRC теста 1011591D CRC копии 1011591D Копирование... OK
Ошибок не произошло
AccurateRip: сводка
Трек 1 отсутствует в базе данныхТрек 2 отсутствует в базе данныхТрек 3 отсутствует в базе данныхТрек 4 отсутствует в базе данныхТрек 5 отсутствует в базе данныхТрек 6 отсутствует в базе данныхТрек 7 отсутствует в базе данныхТрек 8 отсутствует в базе данныхТрек 9 отсутствует в базе данныхТрек 10 отсутствует в базе данныхТрек 11 отсутствует в базе данныхТрек 12 отсутствует в базе данныхТрек 13 отсутствует в базе данныхТрек 14 отсутствует в базе данныхТрек 15 отсутствует в базе данныхТрек 16 отсутствует в базе данныхТрек 17 отсутствует в базе данныхТрек 18 отсутствует в базе данныхТрек 19 отсутствует в базе данныхТрек 20 отсутствует в базе данныхТрек 21 отсутствует в базе данных
Ни одного трека нет в базе AccurateRip
Конец отчёта
==== Контрольная сумма отчёта DC05AF0610F504598D11EFA8B6FD62A458095EAC6831C96AA45F51C84E6DBB5C ====

Лог проверки качества

AUDIOCHECKER v2.0 beta (build 457) - by Dester - opdester@freemail.hu~~~~~~~~~~~~~~~~~~~~~~~~~~~~~~~~~~-=== НЕ РЕДАКТИРУЙТЕ ЭТОТ ФАЙЛ! ===-
Путь: ...\Оркестр Боян - Михаил Глинка. Любимые романсы и мелодии
1 -=- Оркестр ''Боян'' - Михаил Глинка. Любимые романсы и мелодии....wav -=- CDDA (100%)
16793668
Доп. информация: Выпуску диска способствовали Федеральное Агенство по культуре и кинематографии, Минатом России, "ЦНИЛОТ"
(Classica) Оркестр "Боян" - Дивертисмент (Rossini, Римский-Корсаков, Чайковский, Sibelius, Dvorak, Grig, Рахманинов, Fore, Straus, Monti, Свиридов) - 2003, FLAC (image+.cue) lossless



Показать сообщения:    

Текущее время: 07-Дек 19:19

Часовой пояс: UTC + 3


Вы не можете начинать темы
Вы не можете отвечать на сообщения
Вы не можете редактировать свои сообщения
Вы не можете удалять свои сообщения
Вы не можете голосовать в опросах
Вы не можете прикреплять файлы к сообщениям
Вы не можете скачивать файлы