(Orchestral) Gustav Mahler - Symphonie Nr.7 (Wiener Symphoniker - Bruno Maderna) - Hunt - 1988, FLAC (image+.cue) lossless


 

[Цитировать]

GUSTAV MAHLER
SINFONIA N.7

BRUNO MADERNA
-
-
- Жанр: Orchestral
Страна-производитель диска: France
Год издания диска: 1988
Издатель (лейбл): HUNT
Дата записи: 27.05.1967
Аудиокодек: FLAC
Тип рипа: image+.cue
Битрейт аудио: lossless
Продолжительность: 74'31''
Источник: собственный рип
Наличие сканов в содержимом раздачи: да
Треклист:
G.Mahler - Symphonie Nr.7:
[01] I. Langsam - Allegro con fuoco
[02] II. Nachtmusik I - Allegro moderato
[03] III. Scherzo: Schattenhaft. Fliessend, aber nicht schnell
[04] IV. Nachtmusik II - Andante amoroso
[05] V. Rondo - Finale - Allegro ordinario
Исполнители:
Wiener Symphoniker - Bruno Maderna

-

Лог создания рипа

Exact Audio Copy V1.0 beta 3 from 29. August 2011
EAC extraction logfile from 10. February 2014, 1:32
Wiener Symphoniker - Bruno Maderna / Gustav Mahler - Symphonie Nr.7
Used drive : COMPAQ CD-ROM LTN403 Adapter: 0 ID: 0
Read mode : SecureUtilize accurate stream : YesDefeat audio cache : YesMake use of C2 pointers : No
Read offset correction : -1164Overread into Lead-In and Lead-Out : NoFill up missing offset samples with silence : YesDelete leading and trailing silent blocks : NoNull samples used in CRC calculations : YesUsed interface : Native Win32 interface for Win NT & 2000
Used output format : User Defined EncoderSelected bitrate : 128 kBit/sQuality : HighAdd ID3 tag : NoCommand line compressor : C:\Program Files\FLAC\flac.exe
TOC of the extracted CD
Track | Start | Length | Start sector | End sector --------------------------------------------------------- 1 | 0:00.00 | 19:01.10 | 0 | 85584 2 | 19:01.10 | 15:15.02 | 85585 | 154211 3 | 34:16.12 | 8:26.15 | 154212 | 192176 4 | 42:42.27 | 14:55.33 | 192177 | 259334 5 | 57:37.60 | 16:53.50 | 259335 | 335359
Range status and errors
Selected range
Filename D:\Mahler 7 (WS - Maderna).wav
Peak level 91.6 % Extraction speed 3.0 X Range quality 99.9 % Test CRC 211A3A6E Copy CRC 211A3A6E Copy OK
No errors occurred
End of status report
==== Log checksum B7260E4E7B0F84670A6EB3AA1A24ACA9E7FA3331A58C64D0EBFEE3C4C4AEF1F3 ====

Содержание индексной карты (.CUE)

REM GENRE ClassicalREM DATE 1988REM DISCID 40117705REM COMMENT "ExactAudioCopy v1.0b3"PERFORMER "Wiener Symphoniker - Bruno Maderna"TITLE "Mahler - Symphony No. 7 "FILE "Mahler 7 (WS - Maderna).flac" WAVE TRACK 01 AUDIO TITLE "I. Langsam - Allegro con fuoco" PERFORMER "Wiener Symphoniker - Bruno Maderna" INDEX 01 00:00:00 TRACK 02 AUDIO TITLE "II. Nachtmusik I - Allegro moderato" PERFORMER "Wiener Symphoniker - Bruno Maderna" INDEX 01 19:01:10 TRACK 03 AUDIO TITLE "III. Scherzo: Schattenhaft. Fliessend, aber nicht schnell" PERFORMER "Wiener Symphoniker - Bruno Maderna" INDEX 01 34:16:12 TRACK 04 AUDIO TITLE "IV. Nachtmusik II - Andante amoroso" PERFORMER "Wiener Symphoniker - Bruno Maderna" INDEX 01 42:42:27 TRACK 05 AUDIO TITLE "V. Rondo - Finale - Allegro ordinario" PERFORMER "Wiener Symphoniker - Bruno Maderna" INDEX 01 57:37:60
-Доп. информация: Если когда-нибудь потребуется составить список самых необычных записей симфоний Малера, то эта 7-ая будет иметь все шансы занять первое место. "Странность в квадрате": энигматическая "Ночная песнь" в экстравагантном исполнении итальянского композитора Бруно Мадерны, который превзошёл тут своего учителя Германа Шерхена, известного вольными обращениями с темпами и динамикой. Техническая часть Венского Симфонического Оркестра далека от совершенства, но идеи дирижёра они воплощают блестяще - музыка захватывает с первых тактов, заставляя то и дело удивлённо улыбаться при каждом новом повороте на пути по этой загадочной партитуре.



Показать сообщения:    

Текущее время: 04-Дек 02:50

Часовой пояс: UTC + 3


Вы не можете начинать темы
Вы не можете отвечать на сообщения
Вы не можете редактировать свои сообщения
Вы не можете удалять свои сообщения
Вы не можете голосовать в опросах
Вы не можете прикреплять файлы к сообщениям
Вы не можете скачивать файлы