(Orchestral) G.Mahler - Symphonie Nr.7 | J.Haydn - Symphonie Nr.82 | W.A.Mozart - Symphonien Nrn.39 und 41 (Sinfonieorchester des Bayerischen Rundfunks • RIAS-Sinfonieorchester • Hans Rosbaud) - 2005, FLAC (image+.cue) lossless


 

[Цитировать]

Hans Rosbaud
Franz Joseph Haydn. Symphony No.82
Wolfgang Amadeus Mozart. Symphony No.39 - 41
Gustav Mahler. Symphony No.7-
-
- Жанр: Orchestral
Страна-производитель диска: Italy
Год издания диска: 2005
Издатель (лейбл): Monograph
Дата записи: 1950/53
Аудиокодек: FLAC
Тип рипа: image+.cue
Битрейт аудио: lossless
Продолжительность: 73'44'' | 78'39''
Источник: собственный рип
Наличие сканов в содержимом раздачи: да
Треклист:

CD1

[01] Joseph Haydn - Symphonie Nr.82: I. Vivace assai
[02] II. Allegretto
[03] III. Minuet
[04] IV. Vivace
[05] Wolfagang Amadeus Mozart - Symphonie Nr.39: I. Adagio. Allegro
[06] II. Andante con moto
[07] III. Menuetto (Allegretto)
[08] IV. Finale (Allegro)
[09] Wolfagang Amadeus Mozart - Symphonie Nr.41: I. Allegro vivace
[10] II. Andante cantabile
[11] III. Minuetto
[12] IV. Finale

Лог создания рипа

Exact Audio Copy V1.0 beta 3 from 29. August 2011
EAC extraction logfile from 30. January 2014, 23:54
Sinfonieorchester des Bayerischen Rundfunks - Hans Rosbaud / Hans Rosbaud (Haydn, Mozart, Mahler) - CD1
Used drive : PHILIPS CDRW1610A Adapter: 0 ID: 0
Read mode : SecureUtilize accurate stream : YesDefeat audio cache : YesMake use of C2 pointers : No
Read offset correction : 733Overread into Lead-In and Lead-Out : NoFill up missing offset samples with silence : YesDelete leading and trailing silent blocks : NoNull samples used in CRC calculations : YesUsed interface : Native Win32 interface for Win NT & 2000
Used output format : User Defined EncoderSelected bitrate : 896 kBit/sQuality : HighAdd ID3 tag : NoCommand line compressor : C:\Program Files\FLAC\flac.exeAdditional command line options : -T "COMMENT=rip by el coronel" -8 -V %source%
TOC of the extracted CD
Track | Start | Length | Start sector | End sector --------------------------------------------------------- 1 | 0:00.00 | 5:39.10 | 0 | 25434 2 | 5:39.10 | 9:09.34 | 25435 | 66643 3 | 14:48.44 | 4:04.43 | 66644 | 84986 4 | 18:53.12 | 3:58.29 | 84987 | 102865 5 | 22:51.41 | 7:37.24 | 102866 | 137164 6 | 30:28.65 | 9:08.64 | 137165 | 178328 7 | 39:37.54 | 3:35.11 | 178329 | 194464 8 | 43:12.65 | 4:00.73 | 194465 | 212537 9 | 47:13.63 | 7:48.21 | 212538 | 247658 10 | 55:02.09 | 7:44.61 | 247659 | 282519 11 | 62:46.70 | 4:23.27 | 282520 | 302271 12 | 67:10.22 | 6:33.18 | 302272 | 331764
Range status and errors
Selected range
Filename D:\Hans Rosbaud (Haydn, Mozart, Mahler) - CD1.wav
Peak level 98.4 % Extraction speed 8.9 X Range quality 100.0 % Test CRC FBDA2713 Copy CRC FBDA2713 Copy OK
No errors occurred
AccurateRip summary
Track 1 not present in databaseTrack 2 not present in databaseTrack 3 not present in databaseTrack 4 not present in databaseTrack 5 not present in databaseTrack 6 not present in databaseTrack 7 not present in databaseTrack 8 not present in databaseTrack 9 not present in databaseTrack 10 not present in databaseTrack 11 not present in databaseTrack 12 not present in database
None of the tracks are present in the AccurateRip database
End of status report
==== Log checksum 5DF1EBB5B8C0ED004FAED5FE48249D6F91D9ECDDB9C491A66B2E924E491464A0 ====

Содержание индексной карты (.CUE)

REM GENRE ClassicalREM DATE 2005REM DISCID A511470CREM COMMENT "ExactAudioCopy v1.0b3"PERFORMER "Sinfonieorchester des Bayerischen Rundfunks - Hans Rosbaud"TITLE "Hans Rosbaud (Haydn, Mozart, Mahler) - CD1"FILE "Hans Rosbaud (Haydn, Mozart, Mahler) - CD1.flac" WAVE TRACK 01 AUDIO TITLE "Joseph Haydn - Symphonie Nr.82: I. Vivace assai" PERFORMER "Sinfonieorchester des Bayerischen Rundfunks - Hans Rosbaud" FLAGS DCP INDEX 01 00:00:00 TRACK 02 AUDIO TITLE "II. Allegretto" PERFORMER "Sinfonieorchester des Bayerischen Rundfunks - Hans Rosbaud" FLAGS DCP INDEX 01 05:39:10 TRACK 03 AUDIO TITLE "III. Minuet" PERFORMER "Sinfonieorchester des Bayerischen Rundfunks - Hans Rosbaud" INDEX 01 14:48:44 TRACK 04 AUDIO TITLE "IV. Vivace" PERFORMER "Sinfonieorchester des Bayerischen Rundfunks - Hans Rosbaud" FLAGS DCP INDEX 01 18:53:12 TRACK 05 AUDIO TITLE "Wolfagang Amadeus Mozart - Symphonie Nr.39: I. Adagio. Allegro" PERFORMER "Sinfonieorchester des Bayerischen Rundfunks - Hans Rosbaud" FLAGS DCP INDEX 01 22:51:41 TRACK 06 AUDIO TITLE "II. Andante con moto" PERFORMER "Sinfonieorchester des Bayerischen Rundfunks - Hans Rosbaud" FLAGS DCP INDEX 01 30:28:65 TRACK 07 AUDIO TITLE "III. Menuetto (Allegretto)" PERFORMER "Sinfonieorchester des Bayerischen Rundfunks - Hans Rosbaud" FLAGS DCP INDEX 01 39:37:54 TRACK 08 AUDIO TITLE "IV. Finale (Allegro)" PERFORMER "Sinfonieorchester des Bayerischen Rundfunks - Hans Rosbaud" FLAGS DCP INDEX 01 43:12:65 TRACK 09 AUDIO TITLE "Wolfagang Amadeus Mozart - Symphonie Nr.41: I. Allegro vivace" PERFORMER "Sinfonieorchester des Bayerischen Rundfunks - Hans Rosbaud" FLAGS DCP INDEX 01 47:13:63 TRACK 10 AUDIO TITLE "II. Andante cantabile" PERFORMER "Sinfonieorchester des Bayerischen Rundfunks - Hans Rosbaud" FLAGS DCP INDEX 01 55:02:09 TRACK 11 AUDIO TITLE "III. Minuetto" PERFORMER "Sinfonieorchester des Bayerischen Rundfunks - Hans Rosbaud" FLAGS DCP INDEX 01 62:46:70 TRACK 12 AUDIO TITLE "IV. Finale" PERFORMER "Sinfonieorchester des Bayerischen Rundfunks - Hans Rosbaud" FLAGS DCP INDEX 01 67:10:22

CD2

[01] Gustav Mahler - Symphonie Nr.7: I.Langsam (Adagio). Allegro risoluto
[02] II. Nachtmusik I. Allegro moderato
[03] III. Scherzo. Schattenhaft
[04] IV. Nachtmusik II. Andante amoroso
[05] V. Rondo-Finale. Tempo I (Allegro ordinario)

Лог создания рипа

Exact Audio Copy V1.0 beta 3 from 29. August 2011
EAC extraction logfile from 29. January 2014, 18:34
RIAS-Sinfonieorchester Berlin - Hans Rosbaud / Hans Rosbaud (Haydn, Mozart, Mahler) - CD2
Used drive : PHILIPS CDRW1610A Adapter: 0 ID: 0
Read mode : SecureUtilize accurate stream : YesDefeat audio cache : YesMake use of C2 pointers : No
Read offset correction : 733Overread into Lead-In and Lead-Out : NoFill up missing offset samples with silence : YesDelete leading and trailing silent blocks : NoNull samples used in CRC calculations : YesUsed interface : Native Win32 interface for Win NT & 2000
Used output format : User Defined EncoderSelected bitrate : 896 kBit/sQuality : HighAdd ID3 tag : NoCommand line compressor : C:\Program Files\FLAC\flac.exeAdditional command line options : -T "COMMENT=rip by el coronel" -8 -V %source%
TOC of the extracted CD
Track | Start | Length | Start sector | End sector --------------------------------------------------------- 1 | 0:00.00 | 21:08.66 | 0 | 95165 2 | 21:08.66 | 17:20.24 | 95166 | 173189 3 | 38:29.15 | 9:30.14 | 173190 | 215953 4 | 47:59.29 | 11:57.64 | 215954 | 269792 5 | 59:57.18 | 18:42.15 | 269793 | 353957
Range status and errors
Selected range
Filename D:\Hans Rosbaud (Haydn, Mozart, Mahler) - CD2.wav
Peak level 73.4 % Extraction speed 4.1 X Range quality 99.9 % Test CRC 72E45771 Copy CRC 72E45771 Copy OK
No errors occurred
AccurateRip summary
Track 1 not present in databaseTrack 2 not present in databaseTrack 3 not present in databaseTrack 4 not present in databaseTrack 5 not present in database
None of the tracks are present in the AccurateRip database
End of status report
==== Log checksum 99394F0BC5EE50022B60D5E7F44F14D70EDE8B9FDE6F1996C87104AECF1AC4E7 ====

Содержание индексной карты (.CUE)

REM GENRE ClassicalREM DATE 2005REM DISCID 40126F05REM COMMENT "ExactAudioCopy v1.0b3"PERFORMER "RIAS-Sinfonieorchester Berlin - Hans Rosbaud"TITLE "Hans Rosbaud (Haydn, Mozart, Mahler) - CD2"FILE "Hans Rosbaud (Haydn, Mozart, Mahler) - CD2.flac" WAVE TRACK 01 AUDIO TITLE "Gustav Mahler - Symphonie Nr.7: I.Langsam (Adagio). Allegro risoluto, ma non ..." PERFORMER "RIAS-Sinfonieorchester Berlin - Hans Rosbaud" FLAGS DCP INDEX 01 00:00:00 TRACK 02 AUDIO TITLE "II. Nachtmusik I. Allegro moderato" PERFORMER "RIAS-Sinfonieorchester Berlin - Hans Rosbaud" FLAGS DCP INDEX 01 21:08:66 TRACK 03 AUDIO TITLE "III. Scherzo. Schattenhaft" PERFORMER "RIAS-Sinfonieorchester Berlin - Hans Rosbaud" INDEX 01 38:29:15 TRACK 04 AUDIO TITLE "IV. Nachtmusik II. Andante amoroso" PERFORMER "RIAS-Sinfonieorchester Berlin - Hans Rosbaud" FLAGS DCP INDEX 01 47:59:29 TRACK 05 AUDIO TITLE "V. Rondo-Finale. Tempo I (Allegro ordinario)" PERFORMER "RIAS-Sinfonieorchester Berlin - Hans Rosbaud" FLAGS DCP INDEX 01 59:57:18
Исполнители:
Sinfonieorchester des Bayerischen Rundfunks [CD1]
RIAS-Sinfonieorchester [CD2]
Hans Rosbaud



Показать сообщения:    

Текущее время: 03-Дек 03:24

Часовой пояс: UTC + 3


Вы не можете начинать темы
Вы не можете отвечать на сообщения
Вы не можете редактировать свои сообщения
Вы не можете удалять свои сообщения
Вы не можете голосовать в опросах
Вы не можете прикреплять файлы к сообщениям
Вы не можете скачивать файлы