(Classical, Orchestral, Concerto, Opera) Бетховен - Симфонии / Beethoven - Complete Symphonies, Piano Concertos Nos. 1 & 2, Fidelio (Wiener / Berliner Philharmoniker, City of Birmingham Symphony Orchestra, Simon Rattle - 2010, FLAC (image+.cue),


 

[Цитировать]

Beethoven - Complete Symphonies, Piano Concertos Nos. 1 & 2, Fidelio - Rattle
Жанр: Classical, Orchestral, Concerto, Opera
Страна-производитель диска: EU
Год издания диска: 2010
Издатель (лейбл): EMI Classics
Номер по каталогу: 50999 4 57573 2 7
Дата записи: 1995-2002
Аудиокодек: FLAC
Тип рипа: image+.cue
Битрейт аудио: lossless
Продолжительность: 595 min.
Источник: собственный рип
Наличие сканов в содержимом раздачи: да

CD1:Треклист:

Symphony No. 1 in C major Op. 21
01. I. Adagio molto - Allegro con brio
02. II. Anadante cantabile con moto
03. III. Menuetto & trio: Allegro molto e vivace
04. IV. Adagio - Allegro molto e vivace
Symphony No. 3 in E flat major Op. 55 'Eroica'
05. I. Allegro con brio
06. II. Marcia funebre. Adagio assai
07. III. Scherzo & Trio. Allegro vivace
08. IV. Finale. Allegro molto - Poco andante - Presto
Total 75.17

Лог создания рипа:

Exact Audio Copy V1.0 beta 3 from 29. August 2011
Отчёт EAC об извлечении, выполненном 10. июня 2015, 14:35
Simon Rattle / Beethoven - Symphonies Nos. 1 & 3
Дисковод: Optiarc DVD RW AD-7260S Adapter: 0 ID: 1
Режим чтения : Достоверность
Использование точного потока : Да
Отключение кэша аудио : Да
Использование указателей C2 : Нет
Коррекция смещения при чтении : 48
Способность читать области Lead-in и Lead-out : Нет
Заполнение пропущенных сэмплов тишиной : Да
Удаление блоков с тишиной в начале и конце : Нет
При вычислениях CRC использовались нулевые сэмплы : Да
Интерфейс : Встроенный Win32-интерфейс для Win NT/2000
Выходной формат : Пользовательский кодировщик
Выбранный битрейт : 896 kBit/s
Качество : Высокий
Добавление ID3-тега : Нет
Утилита сжатия : C:\Program Files\FLAC Frontend\tools\flac.exe
Дополнительные параметры : -V -8 -T "Date=%year%" -T "Genre=%genre%" %source%
TOC извлечённого CD
Трек | Старт | Длительность | Начальный сектор | Конечный сектор
---------------------------------------------------------------------
1 | 0:00.01 | 8:36.50 | 1 | 38750
2 | 8:36.51 | 7:07.21 | 38751 | 70796
3 | 15:43.72 | 4:03.64 | 70797 | 89085
4 | 19:47.61 | 5:43.34 | 89086 | 114844
5 | 25:31.20 | 16:21.35 | 114845 | 188454
6 | 41:52.55 | 15:14.14 | 188455 | 257018
7 | 57:06.69 | 6:01.66 | 257019 | 284159
8 | 63:08.60 | 12:08.28 | 284160 | 338787
Характеристики диапазона извлечения и сообщения об ошибках
Выбранный диапазон
Имя файла D:\EAC\Мои раздачи\Beethoven - Complete Symphonies ect - Rattle\CD1\Simon Rattle - Beethoven - Symphonies Nos. 1 & 3.wav
Пиковый уровень 100.0 %
Скорость извлечения 4.4 X
Качество диапазона 99.9 %
CRC теста A35DB949
CRC копии A35DB949
Копирование... OK
Ошибок не произошло
AccurateRip: сводка
Трек 1 : извлечено точно (доверие 32) [E3DF6BAF] (AR v2)
Трек 2 : извлечено точно (доверие 33) [D5C59905] (AR v2)
Трек 3 : извлечено точно (доверие 33) [F38455A1] (AR v2)
Трек 4 : извлечено точно (доверие 33) [05D9AF0E] (AR v2)
Трек 5 : извлечено точно (доверие 33) [44EF7F9D] (AR v2)
Трек 6 : извлечено точно (доверие 33) [A262448E] (AR v2)
Трек 7 : извлечено точно (доверие 33) [A50ED21D] (AR v2)
Трек 8 : извлечено точно (доверие 33) [82208EA5] (AR v2)
Все треки извлечены точно
Конец отчёта
==== Контрольная сумма отчёта C09882A6A36D78C1038762155E3ED19A34CCDD0CA7467186A59B8C7CBA4F9372 ====

CD2:Треклист:

Symphony No. 2 in D major Op. 36
01. I. Adagio molto - Allegro con brio
02. II. Larghetto
03. III. Scherzo & Trio. Allegro
04. IV. Allegro molto
Symphony No. 5 in C minor Op. 67
05. I. Allegro con brio
06. II. Andante con moto
07. III. Allegro
08. IV. Allegro - Presto
Total 64.06

Лог создания рипа:

Exact Audio Copy V1.0 beta 3 from 29. August 2011
Отчёт EAC об извлечении, выполненном 10. июня 2015, 12:41
Simon Rattle / Beethoven - Symphonies Nos. 2 & 5
Дисковод: Optiarc DVD RW AD-7260S Adapter: 0 ID: 1
Режим чтения : Достоверность
Использование точного потока : Да
Отключение кэша аудио : Да
Использование указателей C2 : Нет
Коррекция смещения при чтении : 48
Способность читать области Lead-in и Lead-out : Нет
Заполнение пропущенных сэмплов тишиной : Да
Удаление блоков с тишиной в начале и конце : Нет
При вычислениях CRC использовались нулевые сэмплы : Да
Интерфейс : Встроенный Win32-интерфейс для Win NT/2000
Выходной формат : Пользовательский кодировщик
Выбранный битрейт : 896 kBit/s
Качество : Высокий
Добавление ID3-тега : Нет
Утилита сжатия : C:\Program Files\FLAC Frontend\tools\flac.exe
Дополнительные параметры : -V -8 -T "Date=%year%" -T "Genre=%genre%" %source%
TOC извлечённого CD
Трек | Старт | Длительность | Начальный сектор | Конечный сектор
---------------------------------------------------------------------
1 | 0:00.01 | 12:03.13 | 1 | 54238
2 | 12:03.14 | 10:20.20 | 54239 | 100758
3 | 22:23.34 | 3:31.45 | 100759 | 116628
4 | 25:55.04 | 6:13.21 | 116629 | 144624
5 | 32:08.25 | 7:24.29 | 144625 | 177953
6 | 39:32.54 | 9:06.58 | 177954 | 218961
7 | 48:39.37 | 4:47.38 | 218962 | 240524
8 | 53:27.00 | 10:39.08 | 240525 | 288457
Характеристики диапазона извлечения и сообщения об ошибках
Выбранный диапазон
Имя файла D:\EAC\Мои раздачи\Beethoven - Complete Symphonies ect - Rattle\CD2\Simon Rattle - Beethoven - Symphonies Nos. 2 & 5.wav
Пиковый уровень 100.0 %
Скорость извлечения 4.0 X
Качество диапазона 100.0 %
CRC теста 15F8A144
CRC копии 15F8A144
Копирование... OK
Ошибок не произошло
AccurateRip: сводка
Трек 1 : извлечено точно (доверие 28) [6D999554] (AR v2)
Трек 2 : извлечено точно (доверие 29) [7C853486] (AR v2)
Трек 3 : извлечено точно (доверие 29) [80FFA482] (AR v2)
Трек 4 : извлечено точно (доверие 29) [32F52997] (AR v2)
Трек 5 : извлечено точно (доверие 29) [68DFF144] (AR v2)
Трек 6 : извлечено точно (доверие 29) [9700AFDF] (AR v2)
Трек 7 : извлечено точно (доверие 29) [C1E78146] (AR v2)
Трек 8 : извлечено точно (доверие 29) [3E6B7747] (AR v2)
Все треки извлечены точно
Конец отчёта
==== Контрольная сумма отчёта 8B3439FDEB93DE74960E8195DED9B53D35A824262BBCE4DE0286163B77910FBF ====

CD3:Треклист:

Symphony No. 4 in B flat major Op. 60
01. I. Adagio - Allegro vivace
02. II. Adagio
03. III. Menuetto: Allegro vivace; Trio: Un poco meno allegro
04. IV. Allegro ma non tropppo
Symphony No. 6 in F major Op. 68 'Pastoral'
05. I. Allegro ma non troppo
06. II. Andante molto mosso
07. III. Allegro - sempre piu stretto - In tempo dallegro - Tempo I - Presto
08. IV. Allegro
09. V. Allegretto
Total 78.33

Лог создания рипа:

Exact Audio Copy V1.0 beta 3 from 29. August 2011
Отчёт EAC об извлечении, выполненном 10. июня 2015, 13:24
Simon Rattle / Beethoven - Symphonies Nos. 4 & 6
Дисковод: Optiarc DVD RW AD-7260S Adapter: 0 ID: 1
Режим чтения : Достоверность
Использование точного потока : Да
Отключение кэша аудио : Да
Использование указателей C2 : Нет
Коррекция смещения при чтении : 48
Способность читать области Lead-in и Lead-out : Нет
Заполнение пропущенных сэмплов тишиной : Да
Удаление блоков с тишиной в начале и конце : Нет
При вычислениях CRC использовались нулевые сэмплы : Да
Интерфейс : Встроенный Win32-интерфейс для Win NT/2000
Выходной формат : Пользовательский кодировщик
Выбранный битрейт : 896 kBit/s
Качество : Высокий
Добавление ID3-тега : Нет
Утилита сжатия : C:\Program Files\FLAC Frontend\tools\flac.exe
Дополнительные параметры : -V -8 -T "Date=%year%" -T "Genre=%genre%" %source%
TOC извлечённого CD
Трек | Старт | Длительность | Начальный сектор | Конечный сектор
---------------------------------------------------------------------
1 | 0:00.01 | 11:47.07 | 1 | 53032
2 | 11:47.08 | 9:52.72 | 53033 | 97504
3 | 21:40.05 | 5:28.25 | 97505 | 122129
4 | 27:08.30 | 6:43.56 | 122130 | 152410
5 | 33:52.11 | 12:36.21 | 152411 | 209131
6 | 46:28.32 | 12:20.45 | 209132 | 264676
7 | 58:49.02 | 5:24.00 | 264677 | 288976
8 | 64:13.02 | 3:59.71 | 288977 | 306972
9 | 68:12.73 | 10:20.56 | 306973 | 353528
Характеристики диапазона извлечения и сообщения об ошибках
Выбранный диапазон
Имя файла D:\EAC\Мои раздачи\Beethoven - Complete Symphonies ect - Rattle\CD3\Simon Rattle - Beethoven - Symphonies Nos. 4 & 6.wav
Пиковый уровень 83.8 %
Скорость извлечения 4.5 X
Качество диапазона 99.9 %
CRC теста 204DD373
CRC копии 204DD373
Копирование... OK
Ошибок не произошло
AccurateRip: сводка
Трек 1 : извлечено точно (доверие 28) [31F519E4] (AR v2)
Трек 2 : извлечено точно (доверие 29) [E099DA49] (AR v2)
Трек 3 : извлечено точно (доверие 29) [33FA724A] (AR v2)
Трек 4 : извлечено точно (доверие 29) [4D21A482] (AR v2)
Трек 5 : извлечено точно (доверие 29) [83F03D1A] (AR v2)
Трек 6 : извлечено точно (доверие 29) [7E280512] (AR v2)
Трек 7 : извлечено точно (доверие 29) [3B7DBA92] (AR v2)
Трек 8 : извлечено точно (доверие 29) [9164921B] (AR v2)
Трек 9 : извлечено точно (доверие 28) [A7949BCF] (AR v2)
Все треки извлечены точно
Конец отчёта
==== Контрольная сумма отчёта A5485A04E6F8A8398DAA390D1665F64DA815AF827A972981B0AAC109EEB9C85E ====

CD4:Треклист:

Symphony No. 7 in A major Op. 92
01. I. Poco sostenuto - Vivace
02. II. Allegretto
03. III. Presto - Assai meno presto
04. IV. Allegro con brio
Symphony No. 8 in F major Op. 93
05. I. Allegro vivace e con brio
06. II. Allegretto scherzando
07. III. Tempo di menuetto
08. IV. Allegro vivace
Total 65.55

Лог создания рипа:

Exact Audio Copy V1.0 beta 3 from 29. August 2011
Отчёт EAC об извлечении, выполненном 10. июня 2015, 16:00
Simon Rattle / Beethoven - Symphonies Nos. 7 & 8
Дисковод: Optiarc DVD RW AD-7260S Adapter: 0 ID: 1
Режим чтения : Достоверность
Использование точного потока : Да
Отключение кэша аудио : Да
Использование указателей C2 : Нет
Коррекция смещения при чтении : 48
Способность читать области Lead-in и Lead-out : Нет
Заполнение пропущенных сэмплов тишиной : Да
Удаление блоков с тишиной в начале и конце : Нет
При вычислениях CRC использовались нулевые сэмплы : Да
Интерфейс : Встроенный Win32-интерфейс для Win NT/2000
Выходной формат : Пользовательский кодировщик
Выбранный битрейт : 896 kBit/s
Качество : Высокий
Добавление ID3-тега : Нет
Утилита сжатия : C:\Program Files\FLAC Frontend\tools\flac.exe
Дополнительные параметры : -V -8 -T "Date=%year%" -T "Genre=%genre%" %source%
TOC извлечённого CD
Трек | Старт | Длительность | Начальный сектор | Конечный сектор
---------------------------------------------------------------------
1 | 0:00.01 | 14:10.02 | 1 | 63752
2 | 14:10.03 | 8:25.07 | 63753 | 101634
3 | 22:35.10 | 8:28.48 | 101635 | 139782
4 | 31:03.58 | 8:55.12 | 139783 | 179919
5 | 39:58.70 | 9:29.35 | 179920 | 222629
6 | 49:28.30 | 3:59.13 | 222630 | 240567
7 | 53:27.43 | 4:45.54 | 240568 | 261996
8 | 58:13.22 | 7:42.07 | 261997 | 296653
Характеристики диапазона извлечения и сообщения об ошибках
Выбранный диапазон
Имя файла D:\EAC\Мои раздачи\Beethoven - Complete Symphonies ect - Rattle\CD4\Simon Rattle - Beethoven - Symphonies Nos. 7 & 8.wav
Пиковый уровень 99.2 %
Скорость извлечения 4.0 X
Качество диапазона 100.0 %
CRC теста 2ED7D484
CRC копии 2ED7D484
Копирование... OK
Ошибок не произошло
AccurateRip: сводка
Трек 1 : извлечено точно (доверие 22) [F1BAE3E4] (AR v2)
Трек 2 : извлечено точно (доверие 23) [D9CD3087] (AR v2)
Трек 3 : извлечено точно (доверие 23) [ADD99BA7] (AR v2)
Трек 4 : извлечено точно (доверие 23) [F6CD7DF8] (AR v2)
Трек 5 : извлечено точно (доверие 23) [9BD90B20] (AR v2)
Трек 6 : извлечено точно (доверие 23) [765BB59B] (AR v2)
Трек 7 : извлечено точно (доверие 23) [6E174854] (AR v2)
Трек 8 : извлечено точно (доверие 23) [1CC80E3E] (AR v2)
Все треки извлечены точно
Конец отчёта
==== Контрольная сумма отчёта 30B9BACC22E1F34D6E6603B21577C1CE7F4F84B4AC7A139CFF6DD5CEBFCDD7A6 ====

CD5:Треклист:

Symphony No. 9 in D minor Op. 125 'Choral'
01. I. Allegro non troppo, un poco maestoso
02. II. Molto vivace - Presto
03. III. Adagio molto e cantabile -
04. IV. Presto - Allegro assai -
05. V. Presto -
Total 69.57

Лог создания рипа:

Exact Audio Copy V1.0 beta 3 from 29. August 2011
Отчёт EAC об извлечении, выполненном 10. июня 2015, 16:41
Simon Rattle / Beethoven - Symphony No. 9
Дисковод: Optiarc DVD RW AD-7260S Adapter: 0 ID: 1
Режим чтения : Достоверность
Использование точного потока : Да
Отключение кэша аудио : Да
Использование указателей C2 : Нет
Коррекция смещения при чтении : 48
Способность читать области Lead-in и Lead-out : Нет
Заполнение пропущенных сэмплов тишиной : Да
Удаление блоков с тишиной в начале и конце : Нет
При вычислениях CRC использовались нулевые сэмплы : Да
Интерфейс : Встроенный Win32-интерфейс для Win NT/2000
Выходной формат : Пользовательский кодировщик
Выбранный битрейт : 896 kBit/s
Качество : Высокий
Добавление ID3-тега : Нет
Утилита сжатия : C:\Program Files\FLAC Frontend\tools\flac.exe
Дополнительные параметры : -V -8 -T "Date=%year%" -T "Genre=%genre%" %source%
TOC извлечённого CD
Трек | Старт | Длительность | Начальный сектор | Конечный сектор
---------------------------------------------------------------------
1 | 0:00.01 | 16:55.69 | 1 | 76194
2 | 16:55.70 | 11:59.06 | 76195 | 130125
3 | 28:55.01 | 17:03.01 | 130126 | 206851
4 | 45:58.02 | 6:18.68 | 206852 | 235269
5 | 52:16.70 | 17:40.04 | 235270 | 314773
Характеристики диапазона извлечения и сообщения об ошибках
Выбранный диапазон
Имя файла D:\EAC\Мои раздачи\Beethoven - Complete Symphonies ect - Rattle\CD5\Simon Rattle - Beethoven - Symphony No. 9.wav
Пиковый уровень 100.0 %
Скорость извлечения 4.1 X
Качество диапазона 100.0 %
CRC теста D68F367E
CRC копии D68F367E
Копирование... OK
Ошибок не произошло
AccurateRip: сводка
Трек 1 : извлечено точно (доверие 15) [892ACFB7] (AR v2)
Трек 2 : извлечено точно (доверие 16) [94A265A8] (AR v2)
Трек 3 : извлечено точно (доверие 16) [31641BE0] (AR v2)
Трек 4 : извлечено точно (доверие 16) [2B727FC2] (AR v2)
Трек 5 : извлечено точно (доверие 15) [2393C2DE] (AR v2)
Все треки извлечены точно
Конец отчёта
==== Контрольная сумма отчёта DB7F6026EE39605ED6EA37253E7642168F8D7B2F2A19CB4293296B958BB39BE0 ====

CD6:Треклист:

Piano Concerto No. 1 in C major Op. 15
01. I. Allegro con brio
02. II. Largo
03. III. Rondo. Allegro
Piano Concerto No. 2 in B flat major Op. 19
04. I. Allegro con brio
05. II. Adagio
06. III. Rondo. Allegro molto
Total 66.14

Лог создания рипа:

Exact Audio Copy V1.0 beta 3 from 29. August 2011
Отчёт EAC об извлечении, выполненном 10. июня 2015, 17:20
Simon Rattle / Beethoven - Piano Concertos Nos 1 & 2
Дисковод: Optiarc DVD RW AD-7260S Adapter: 0 ID: 1
Режим чтения : Достоверность
Использование точного потока : Да
Отключение кэша аудио : Да
Использование указателей C2 : Нет
Коррекция смещения при чтении : 48
Способность читать области Lead-in и Lead-out : Нет
Заполнение пропущенных сэмплов тишиной : Да
Удаление блоков с тишиной в начале и конце : Нет
При вычислениях CRC использовались нулевые сэмплы : Да
Интерфейс : Встроенный Win32-интерфейс для Win NT/2000
Выходной формат : Пользовательский кодировщик
Выбранный битрейт : 896 kBit/s
Качество : Высокий
Добавление ID3-тега : Нет
Утилита сжатия : C:\Program Files\FLAC Frontend\tools\flac.exe
Дополнительные параметры : -V -8 -T "Date=%year%" -T "Genre=%genre%" %source%
TOC извлечённого CD
Трек | Старт | Длительность | Начальный сектор | Конечный сектор
---------------------------------------------------------------------
1 | 0:00.00 | 18:09.64 | 0 | 81738
2 | 18:09.64 | 10:45.00 | 81739 | 130113
3 | 28:54.64 | 8:31.00 | 130114 | 168438
4 | 37:25.64 | 14:06.00 | 168439 | 231888
5 | 51:31.64 | 8:47.00 | 231889 | 271413
6 | 60:18.64 | 5:55.12 | 271414 | 298050
Характеристики диапазона извлечения и сообщения об ошибках
Выбранный диапазон
Имя файла D:\EAC\Мои раздачи\Beethoven - Complete Symphonies ect - Rattle\CD6\Simon Rattle - Beethoven - Piano Concertos Nos 1 & 2.wav
Пиковый уровень 87.9 %
Скорость извлечения 4.0 X
Качество диапазона 99.9 %
CRC теста 23AF300A
CRC копии 23AF300A
Копирование... OK
Ошибок не произошло
AccurateRip: сводка
Трек 1 : извлечено точно (доверие 12) [189A1671] (AR v2)
Трек 2 : извлечено точно (доверие 13) [DB215B5A] (AR v2)
Трек 3 : извлечено точно (доверие 13) [CB8F1AA2] (AR v2)
Трек 4 : извлечено точно (доверие 13) [969DBB16] (AR v2)
Трек 5 : извлечено точно (доверие 13) [8DAECD59] (AR v2)
Трек 6 : извлечено точно (доверие 13) [F8429C88] (AR v2)
Все треки извлечены точно
Конец отчёта
==== Контрольная сумма отчёта B3525F362463971D13F31A50CA0492C4222AAF1939982E58ACFD30B9A6D76574 ====

CD7:Треклист:

Symphony No. 5 in C minor Op. 67
01. I. Allegro con brio
02. II. Andante con moto
03. III. Allegro -
04. IV. Allegro - Presto
Piano Concerto No. 1 in C major Op. 15
05. I. Allegro con brio
06. II. Largo
07. III. Rondo. Allegro
Total 66.36

Лог создания рипа:

Exact Audio Copy V1.0 beta 3 from 29. August 2011
Отчёт EAC об извлечении, выполненном 10. июня 2015, 18:06
Simon Rattle / Beethoven - Symphony N0. 5, Piano Concerto No. 1
Дисковод: Optiarc DVD RW AD-7260S Adapter: 0 ID: 1
Режим чтения : Достоверность
Использование точного потока : Да
Отключение кэша аудио : Да
Использование указателей C2 : Нет
Коррекция смещения при чтении : 48
Способность читать области Lead-in и Lead-out : Нет
Заполнение пропущенных сэмплов тишиной : Да
Удаление блоков с тишиной в начале и конце : Нет
При вычислениях CRC использовались нулевые сэмплы : Да
Интерфейс : Встроенный Win32-интерфейс для Win NT/2000
Выходной формат : Пользовательский кодировщик
Выбранный битрейт : 896 kBit/s
Качество : Высокий
Добавление ID3-тега : Нет
Утилита сжатия : C:\Program Files\FLAC Frontend\tools\flac.exe
Дополнительные параметры : -V -8 -T "Date=%year%" -T "Genre=%genre%" %source%
TOC извлечённого CD
Трек | Старт | Длительность | Начальный сектор | Конечный сектор
---------------------------------------------------------------------
1 | 0:00.00 | 7:21.12 | 0 | 33086
2 | 7:21.12 | 9:04.48 | 33087 | 73934
3 | 16:25.60 | 4:50.07 | 73935 | 95691
4 | 21:15.67 | 10:35.71 | 95692 | 143387
5 | 31:51.63 | 14:59.33 | 143388 | 210845
6 | 46:51.21 | 10:45.37 | 210846 | 259257
7 | 57:36.58 | 9:00.03 | 259258 | 299760
Характеристики диапазона извлечения и сообщения об ошибках
Выбранный диапазон
Имя файла D:\EAC\Мои раздачи\Beethoven - Complete Symphonies ect - Rattle\CD7\Simon Rattle - Beethoven - Symphony N0. 5, Piano Concerto No. 1.wav
Пиковый уровень 99.7 %
Скорость извлечения 4.0 X
Качество диапазона 100.0 %
CRC теста 32A9D6A2
CRC копии 32A9D6A2
Копирование... OK
Ошибок не произошло
AccurateRip: сводка
Трек 1 : извлечено точно (доверие 12) [98FF5E9E] (AR v2)
Трек 2 : извлечено точно (доверие 13) [5FFC0A8A] (AR v2)
Трек 3 : извлечено точно (доверие 13) [EDF2F372] (AR v2)
Трек 4 : извлечено точно (доверие 13) [AA885549] (AR v2)
Трек 5 : извлечено точно (доверие 13) [9F52789F] (AR v2)
Трек 6 : извлечено точно (доверие 12) [77B32886] (AR v2)
Трек 7 : извлечено точно (доверие 13) [9C598BE3] (AR v2)
Все треки извлечены точно
Конец отчёта
==== Контрольная сумма отчёта 1C71F09C54016C7680388B731885DE88EDEAAB93939315488AA47861DAF26DF1 ====

CD8:Треклист:

Fidelio Act I
01. Ouverture
02. Nr. 1: Duett - Jetzt, Schatzchen, jetzt sind wir allein
03. Nr. 1: Rezitativ - Armer Jaquin
04. Nr. 2: Arie - O war' ich schon mit dir vereint
05. Nr. 2: Rezitativ - Marzelline, ist Fidelio noch nicht zuruckgekommen?
06. Nr. 3: Quartett - Mir ist so wunderbar
07. Nr. 3: Rezitativ - Hore, Fidelio, ich gebe dir meine Tochter zur Frau
08. Nr. 4: Arie - Hat man nicht auch Gold beineben
09. Nr. 4: Rezitativ - Ihr konnt das leicht sagen, Meister Rocco
10. Nr. 5: Terzett - Gut, Sohnchen, gut, hab' immer Mut
11. Nr. 5: Terzett - Nur auf der Hut, dann geht es gut
12. Nr. 6: Marsch - (Orchestra)
13. Nr. 6: Rezitativ - Wo sind die Depeschen?
14. Nr. 7: Arie mit Chor - Ha! Welch' ein Augenblick!
15. Nr. 7: Rezitativ - Hauptmann! Besteigen Sie mit einem Trompeter
16. Nr. 8: Duett - Jetzt, Alter, jetzt hat es Eile!
17. Nr. 9: Rezitativ - Abscheulicher! Wo eilst du hin?
18. Nr. 9: Arie - Komm, Hoffnung, lass den letzten Stern
19. Nr. 9: Rezitativ - Meister Rocco, Ihr verspracht so oft
20. Nr. 10: Finale - O welche Lust!
21. Nr. 10: Finale - Nun sprecht, wie ging's?
22. Nr. 10: Finale - Ach! Vater, eilt!
23. Nr. 10: Finale - Leb wohl, du warmes Sonnenlicht
Total 65.56

Лог создания рипа:

Exact Audio Copy V1.0 beta 3 from 29. August 2011
Отчёт EAC об извлечении, выполненном 10. июня 2015, 18:48
Simon Rattle / Beethoven - Fidelio, Act I
Дисковод: Optiarc DVD RW AD-7260S Adapter: 0 ID: 1
Режим чтения : Достоверность
Использование точного потока : Да
Отключение кэша аудио : Да
Использование указателей C2 : Нет
Коррекция смещения при чтении : 48
Способность читать области Lead-in и Lead-out : Нет
Заполнение пропущенных сэмплов тишиной : Да
Удаление блоков с тишиной в начале и конце : Нет
При вычислениях CRC использовались нулевые сэмплы : Да
Интерфейс : Встроенный Win32-интерфейс для Win NT/2000
Выходной формат : Пользовательский кодировщик
Выбранный битрейт : 896 kBit/s
Качество : Высокий
Добавление ID3-тега : Нет
Утилита сжатия : C:\Program Files\FLAC Frontend\tools\flac.exe
Дополнительные параметры : -V -8 -T "Date=%year%" -T "Genre=%genre%" %source%
TOC извлечённого CD
Трек | Старт | Длительность | Начальный сектор | Конечный сектор
---------------------------------------------------------------------
1 | 0:00.00 | 6:48.73 | 0 | 30672
2 | 6:48.73 | 4:41.53 | 30673 | 51800
3 | 11:30.51 | 0:10.55 | 51801 | 52605
4 | 11:41.31 | 3:54.03 | 52606 | 70158
5 | 15:35.34 | 0:34.21 | 70159 | 72729
6 | 16:09.55 | 3:35.00 | 72730 | 88854
7 | 19:44.55 | 0:11.73 | 88855 | 89752
8 | 19:56.53 | 2:51.22 | 89753 | 102599
9 | 22:48.00 | 0:57.07 | 102600 | 106881
10 | 23:45.07 | 3:48.07 | 106882 | 123988
11 | 27:33.14 | 2:14.23 | 123989 | 134061
12 | 29:47.37 | 1:46.47 | 134062 | 142058
13 | 31:34.09 | 0:41.56 | 142059 | 145189
14 | 32:15.65 | 3:06.09 | 145190 | 159148
15 | 35:21.74 | 0:17.73 | 159149 | 160496
16 | 35:39.72 | 5:18.44 | 160497 | 184390
17 | 40:58.41 | 2:02.31 | 184391 | 193571
18 | 43:00.72 | 5:24.51 | 193572 | 217922
19 | 48:25.48 | 0:17.21 | 217923 | 219218
20 | 48:42.69 | 6:44.68 | 219219 | 249586
21 | 55:27.62 | 4:56.19 | 249587 | 271805
22 | 60:24.06 | 2:12.48 | 271806 | 281753
23 | 62:36.54 | 3:19.30 | 281754 | 296708
Характеристики диапазона извлечения и сообщения об ошибках
Выбранный диапазон
Имя файла D:\EAC\Мои раздачи\Beethoven - Complete Symphonies ect - Rattle\CD8\Simon Rattle - Beethoven - Fidelio, Act I.wav
Пиковый уровень 100.0 %
Скорость извлечения 4.0 X
Качество диапазона 99.9 %
CRC теста C28A013E
CRC копии C28A013E
Копирование... OK
Ошибок не произошло
AccurateRip: сводка
Трек 1 : извлечено точно (доверие 16) [0852942F] (AR v2)
Трек 2 : извлечено точно (доверие 17) [A6533ECB] (AR v2)
Трек 3 : извлечено точно (доверие 18) [ABF347C8] (AR v2)
Трек 4 : извлечено точно (доверие 18) [49DCA1DB] (AR v2)
Трек 5 : извлечено точно (доверие 18) [C90D23E6] (AR v2)
Трек 6 : извлечено точно (доверие 17) [DB654F20] (AR v2)
Трек 7 : извлечено точно (доверие 18) [27EE55E6] (AR v2)
Трек 8 : извлечено точно (доверие 18) [F80E2ABB] (AR v2)
Трек 9 : извлечено точно (доверие 18) [B2D3453F] (AR v2)
Трек 10 : извлечено точно (доверие 18) [CC48C1AB] (AR v2)
Трек 11 : извлечено точно (доверие 18) [CBC4C370] (AR v2)
Трек 12 : извлечено точно (доверие 18) [6A47F128] (AR v2)
Трек 13 : извлечено точно (доверие 18) [EC2C687E] (AR v2)
Трек 14 : извлечено точно (доверие 18) [4BA34D58] (AR v2)
Трек 15 : извлечено точно (доверие 18) [AD455927] (AR v2)
Трек 16 : извлечено точно (доверие 17) [28269211] (AR v2)
Трек 17 : извлечено точно (доверие 18) [BC835FFE] (AR v2)
Трек 18 : извлечено точно (доверие 18) [33A420BD] (AR v2)
Трек 19 : извлечено точно (доверие 18) [9E6C34B1] (AR v2)
Трек 20 : извлечено точно (доверие 17) [2BB536F1] (AR v2)
Трек 21 : извлечено точно (доверие 17) [BE1F121D] (AR v2)
Трек 22 : извлечено точно (доверие 17) [1AB31DC7] (AR v2)
Трек 23 : извлечено точно (доверие 17) [288D4563] (AR v2)
Все треки извлечены точно
Конец отчёта
==== Контрольная сумма отчёта DDF6348792F98BACB6DFA46EDAA9A5B7BA75BF020C912B76F74F976656E67230 ====

CD9:Треклист:

Fidelio Act II
01. No. 11: Introduction
02. No. 11: Arie - Gott! Welch' Dunkel Heir! In des Lebens Fruhlingstagen
03. No. 12: Melodrama - Wie kalt is es heir!
04. No. 12: Duett - Nur hurtig fort, nur frisch gegraben
05. No. 12: Rezitativ - Er er warch!
06. No. 13: Terzett - Euch werde Lohn in besser'n Welten
07. No. 13: Rezitativ - Alles is bereit
08. No. 14: Quartett - Er sterbe! Rezitativ - Vater Rocco!
09. No. 14: Rezitativ - Es schlagt der rache Stunde!
10. No. 15: Duett - O namenlose Freude!
11. No. 16: Finale - Heil sei dem Tag
12. No. 16: Finale - Des besten Konigs Wink und Wille
13. No. 16: Finale - O Gott! Welch' ein Augenblick!
14. No. 16: Finale - Wer ein holdes Weib errungen
Total 44.14

Лог создания рипа:

Exact Audio Copy V1.0 beta 3 from 29. August 2011
Отчёт EAC об извлечении, выполненном 10. июня 2015, 19:41
Simon Rattle / Beethoven - Fidelio, Act II
Дисковод: Optiarc DVD RW AD-7260S Adapter: 0 ID: 1
Режим чтения : Достоверность
Использование точного потока : Да
Отключение кэша аудио : Да
Использование указателей C2 : Нет
Коррекция смещения при чтении : 48
Способность читать области Lead-in и Lead-out : Нет
Заполнение пропущенных сэмплов тишиной : Да
Удаление блоков с тишиной в начале и конце : Нет
При вычислениях CRC использовались нулевые сэмплы : Да
Интерфейс : Встроенный Win32-интерфейс для Win NT/2000
Выходной формат : Пользовательский кодировщик
Выбранный битрейт : 896 kBit/s
Качество : Высокий
Добавление ID3-тега : Нет
Утилита сжатия : C:\Program Files\FLAC Frontend\tools\flac.exe
Дополнительные параметры : -V -8 -T "Date=%year%" -T "Genre=%genre%" %source%
TOC извлечённого CD
Трек | Старт | Длительность | Начальный сектор | Конечный сектор
---------------------------------------------------------------------
1 | 0:00.00 | 5:11.45 | 0 | 23369
2 | 5:11.45 | 4:36.61 | 23370 | 44130
3 | 9:48.31 | 1:41.39 | 44131 | 51744
4 | 11:29.70 | 3:57.19 | 51745 | 69538
5 | 15:27.14 | 0:49.18 | 69539 | 73231
6 | 16:16.32 | 6:03.67 | 73232 | 100523
7 | 22:20.24 | 0:20.00 | 100524 | 102023
8 | 22:40.24 | 3:27.49 | 102024 | 117597
9 | 26:07.73 | 1:08.38 | 117598 | 122735
10 | 27:16.36 | 3:33.21 | 122736 | 138731
11 | 30:49.57 | 1:51.57 | 138732 | 147113
12 | 32:41.39 | 4:37.21 | 147114 | 167909
13 | 37:18.60 | 2:58.09 | 167910 | 181268
14 | 40:16.69 | 3:57.35 | 181269 | 199078
Характеристики диапазона извлечения и сообщения об ошибках
Выбранный диапазон
Имя файла D:\EAC\Мои раздачи\Beethoven - Complete Symphonies ect - Rattle\CD9\Simon Rattle - Beethoven - Fidelio, Act II.wav
Пиковый уровень 100.0 %
Скорость извлечения 3.6 X
Качество диапазона 100.0 %
CRC теста 3669A456
CRC копии 3669A456
Копирование... OK
Ошибок не произошло
AccurateRip: сводка
Трек 1 : извлечено точно (доверие 18) [B1FFF6AD] (AR v2)
Трек 2 : извлечено точно (доверие 19) [396E5EEA] (AR v2)
Трек 3 : извлечено точно (доверие 19) [69260871] (AR v2)
Трек 4 : извлечено точно (доверие 19) [3239557B] (AR v2)
Трек 5 : извлечено точно (доверие 19) [E24B0FFC] (AR v2)
Трек 6 : извлечено точно (доверие 19) [5F4FE6B8] (AR v2)
Трек 7 : извлечено точно (доверие 19) [CAE7F66D] (AR v2)
Трек 8 : извлечено точно (доверие 19) [BD4B4126] (AR v2)
Трек 9 : извлечено точно (доверие 19) [8842AF39] (AR v2)
Трек 10 : извлечено точно (доверие 19) [ABA4EBD1] (AR v2)
Трек 11 : извлечено точно (доверие 18) [314CEDEB] (AR v2)
Трек 12 : извлечено точно (доверие 19) [5A876E00] (AR v2)
Трек 13 : извлечено точно (доверие 19) [4DE9DD77] (AR v2)
Трек 14 : извлечено точно (доверие 19) [EDF2C479] (AR v2)
Все треки извлечены точно
Конец отчёта
==== Контрольная сумма отчёта FD30F756D883FFB056FDD8CC62C0FBE33176425CFEFBC31E58C4F36058C6C5ED ====

Исполнители:

Thomas Quasthoff (Don Fernando), Alan Held (Don Pizarro), Jon Villars (Florestan), Angela Denoke (Leonore)
Laszlo Polgar (Rocco), Juliane Banse (Marzelline), Rainer Trost (Jaquino) (Fidelio)
Barbara Bonney (Soprano), Birgit Remmert (Alto), Kurt Streit (Tenor), Thomas Hampson (Baritone) (Symphony No. 9)
Lars Vogt, piano (Piano Concertos)
City of Birmingham Symphony Chorus, Simon Halsey (Symphony No. 9)
Arnold Schoenberg Choir (Fidelio)
Wiener Philharmoniker (Symohonies Nos. 1-9)
City of Birmingham Symphony Orchestra (Piano Concertos)
Berliner Philharmoniker (Fidelio)
Sir Simon Rattle



Показать сообщения:    

Текущее время: 04-Дек 19:22

Часовой пояс: UTC + 3


Вы не можете начинать темы
Вы не можете отвечать на сообщения
Вы не можете редактировать свои сообщения
Вы не можете удалять свои сообщения
Вы не можете голосовать в опросах
Вы не можете прикреплять файлы к сообщениям
Вы не можете скачивать файлы