(Classical, Orchestral) Yutaka Sado, Siena Wind Orchestra - The Originals (Mashima, Meij, Gorb, C.T. Smith, Rudin) - 2011, FLAC (tracks+.cue), lossless


 

[Цитировать]

Yutaka Sado & Siena Wind Orchestra - The Originals
Жанр: Classical, Orchestral
Страна-производитель диска: Япония
Год издания диска: 2011
Издатель (лейбл): Avex Classics
Номер по каталогу: AVCL-25748
Аудиокодек: FLAC
Тип рипа: tracks+.cue
Битрейт аудио: lossless
Продолжительность: 1:00:09
Источник (релизер): hisashiburi (what)
Наличие сканов в содержимом раздачи: да
Треклист:
Toshio Mashima
01. La danse du Phenix-impression de Kyoto (9:58)
Johan de Meij
02. Extreme Make-over (16:43)
Adam Gorb
03. Metropolis (15:21)
Claude Thomas Smith
04. Festival Variations (11:17)
Rolf Rudin
05. Lied ohne Worte (6:50)
Исполнители:
Siena Wind Orchestra
Yutaka Sado - conductor
Recorded in 2004-2009.

Лог создания рипа

Exact Audio Copy V1.0 beta 3 from 29. August 2011
EAC extraction logfile from 12. May 2014, 12:07
Siena Wind Orchestra, Yutaka Sado / The Originals
Used drive : TSSTcorpDVD+-RW TS-U633F Adapter: 1 ID: 0
Read mode : SecureUtilize accurate stream : YesDefeat audio cache : YesMake use of C2 pointers : No
Read offset correction : 6Overread into Lead-In and Lead-Out : NoFill up missing offset samples with silence : YesDelete leading and trailing silent blocks : NoNull samples used in CRC calculations : YesUsed interface : Installed external ASPI interfaceGap handling : Appended to previous track
Used output format : User Defined EncoderSelected bitrate : 1024 kBit/sQuality : HighAdd ID3 tag : NoCommand line compressor : C:\Program Files\Exact Audio Copy\Flac\flac.exeAdditional command line options : -8 -V -T "ARTIST=%artist%" -T "TITLE=%title%" -T "ALBUM=%albumtitle%" -T "DATE=%year%" -T "TRACKNUMBER=%tracknr%" -T "GENRE=%genre%" -T "PERFORMER=%albuminterpret%" -T "COMPOSER=%composer%" %haslyrics%--tag-from-file=LYRICS="%lyricsfile%"%haslyrics% -T "ALBUMARTIST=%albumartist%" -T "DISCNUMBER=%cdnumber%" -T "TOTALDISCS=%totalcds%" -T "TOTALTRACKS=%numtracks%" -T "COMMENT=%comment%" %source% -o %dest%
TOC of the extracted CD
Track | Start | Length | Start sector | End sector --------------------------------------------------------- 1 | 0:00.00 | 9:58.12 | 0 | 44861 2 | 9:58.12 | 16:42.55 | 44862 | 120066 3 | 26:40.67 | 15:20.40 | 120067 | 189106 4 | 42:01.32 | 11:17.13 | 189107 | 239894 5 | 53:18.45 | 6:50.18 | 239895 | 270662
Track 1
Filename H:\flac\The Originals\01 - La danse du Phenix-impression de Kyoto.wav
Pre-gap length 0:00:02.00
Peak level 99.1 % Extraction speed 3.5 X Track quality 100.0 % Test CRC 05BBBBF5 Copy CRC 05BBBBF5 Accurately ripped (confidence 3) [069E7EC3] (AR v2) Copy OK
Track 2
Filename H:\flac\The Originals\02 - Extreme Make-over.wav
Pre-gap length 0:00:04.98
Peak level 96.7 % Extraction speed 4.3 X Track quality 100.0 % Test CRC 4CAB6650 Copy CRC 4CAB6650 Accurately ripped (confidence 4) [99D0699E] (AR v2) Copy OK
Track 3
Filename H:\flac\The Originals\03 - Metropolis.wav
Pre-gap length 0:00:04.32
Peak level 93.8 % Extraction speed 5.1 X Track quality 100.0 % Test CRC D74126F8 Copy CRC D74126F8 Accurately ripped (confidence 4) [693BB43D] (AR v2) Copy OK
Track 4
Filename H:\flac\The Originals\04 - Festival Variations.wav
Pre-gap length 0:00:04.32
Peak level 100.0 % Extraction speed 5.6 X Track quality 100.0 % Test CRC 1F172C27 Copy CRC 1F172C27 Accurately ripped (confidence 4) [6C4475AC] (AR v2) Copy OK
Track 5
Filename H:\flac\The Originals\05 - Lied ohne Worte.wav
Pre-gap length 0:00:04.93
Peak level 59.4 % Extraction speed 5.8 X Track quality 100.0 % Test CRC 959498D9 Copy CRC 959498D9 Accurately ripped (confidence 4) [E88EE057] (AR v2) Copy OK
All tracks accurately ripped
No errors occurred
End of status report
==== Log checksum DB1A1765D413C0835481704BAA21CB7A16051068F122CB6321FFA5ED90930750 ====

Содержание индексной карты (.CUE)

REM GENRE ClassicalREM DATE 2011REM DISCID 220E1805REM COMMENT "ExactAudioCopy v1.0b3"CATALOG 4988064257485PERFORMER "Yutaka Sado & Siena Wind Orchestra"TITLE "The Originals"FILE "01 - Mashima- La danse du Phenix-impression de Kyoto.wav" WAVE TRACK 01 AUDIO TITLE "Mashima: La danse du Phenix-impression de Kyoto" PERFORMER "Yutaka Sado & Siena Wind Orchestra" ISRC JPB601167801 INDEX 01 00:00:00 TRACK 02 AUDIO TITLE "De Meij: Extreme Make-over" PERFORMER "Yutaka Sado & Siena Wind Orchestra" ISRC JPB601112501 INDEX 00 09:53:13FILE "02 - De Meij- Extreme Make-over.wav" WAVE INDEX 01 00:00:00 TRACK 03 AUDIO TITLE "Gorb: Metropolis" PERFORMER "Yutaka Sado & Siena Wind Orchestra" ISRC JPB600879205 INDEX 00 16:38:31FILE "03 - Gorb- Metropolis.wav" WAVE INDEX 01 00:00:00 TRACK 04 AUDIO TITLE "C.T. Smith: Festival Variations" PERFORMER "Yutaka Sado & Siena Wind Orchestra" ISRC JPB600522408 INDEX 00 15:16:16FILE "04 - C.T. Smith- Festival Variations.wav" WAVE INDEX 01 00:00:00 TRACK 05 AUDIO TITLE "Rudin: Lied ohne Worte" PERFORMER "Yutaka Sado & Siena Wind Orchestra" ISRC JPB600522409 INDEX 00 11:12:18FILE "05 - Rudin- Lied ohne Worte.wav" WAVE INDEX 01 00:00:00

Отчет CUETools

[CUETools log; Date: 09.06.2015 19:23:15; Version: 2.1.5][CTDB TOCID: 0bbjlCKJrigSkneOP.GRG4Iipc0-] found.Track | CTDB Status 1 | (6/6) Accurately ripped 2 | (6/6) Accurately ripped 3 | (6/6) Accurately ripped 4 | (6/6) Accurately ripped 5 | (6/6) Accurately ripped[AccurateRip ID: 000d3152-003d7d6f-220e1805] found.Track [ CRC | V2 ] Status 01 [aa898eeb|069e7ec3] (2+3/5) Accurately ripped 02 [e2d4a078|99d0699e] (2+4/6) Accurately ripped 03 [1d96b358|693bb43d] (2+4/6) Accurately ripped 04 [36c836cc|6c4475ac] (2+4/6) Accurately ripped 05 [7330f6f9|e88ee057] (2+4/6) Accurately ripped
Track Peak [ CRC32 ] [W/O NULL] [ LOG ] -- 100,0 [BAF32CD0] [46ABA4AE] 01 99,1 [05BBBBF5] [ED51DB39] CRC32 02 96,7 [4CAB6650] [76D842A8] CRC32 03 93,8 [D74126F8] [7579EBEE] CRC32 04 100,0 [1F172C27] [3A07CDE2] CRC32 05 59,4 [959498D9] [DFAEA7A6] CRC32



Показать сообщения:    

Текущее время: 07-Дек 00:51

Часовой пояс: UTC + 3


Вы не можете начинать темы
Вы не можете отвечать на сообщения
Вы не можете редактировать свои сообщения
Вы не можете удалять свои сообщения
Вы не можете голосовать в опросах
Вы не можете прикреплять файлы к сообщениям
Вы не можете скачивать файлы