(Classical, contemporary) Claude Baker - The Glass Bead Game; Awaking the Winds; Shadows; The Mystic Trumpeter - St. Louis Symphony, Leonard Slatkin, Hans Vonk - 2012, FLAC (image+.cue) lossless


 

[Цитировать]

Claude Baker - The Glass Bead Game; Awaking the Winds; Shadows; The Mystic Trumpeter - St. Louis Symphony, Leonard Slatkin, Hans Vonk
Жанр: Classical, contemporary
Год издания диска: 2012
Издатель (лейбл): Naxos
Номер по каталогу: 8.559642
Дата записи: 1990-1999
Аудиокодек: FLAC
Тип рипа: image+.cue
Битрейт аудио: lossless
Продолжительность: 66:36
Источник: собственный рип
Наличие сканов в содержимом раздачи: да
Треклист:
Claude Baker (b.1948)
[1]-[3] The Glass Bead Game (1982, rev. 1983)*
[4] Awaking the Winds (1993)*
[5]-[8] Shadows: Four Dirge-Nocturnes (1990)*
[9]-[10] The Mystic Trumpeter (1999)
Исполнители:
St. Louis Symphony
Leonard Slatkin
*
Hans Vonk

Лог создания рипа

Exact Audio Copy V1.0 beta 3 from 29. August 2011
EAC extraction logfile from 31. May 2015, 17:19
St. Louis Symphony, Leonard Slatkin / Baker - The Glass Bead Game
Used drive : HL-DT-STDVDRAM GU70N Adapter: 0 ID: 0
Read mode : SecureUtilize accurate stream : YesDefeat audio cache : YesMake use of C2 pointers : No
Read offset correction : 48Overread into Lead-In and Lead-Out : NoFill up missing offset samples with silence : YesDelete leading and trailing silent blocks : NoNull samples used in CRC calculations : YesUsed interface : Native Win32 interface for Win NT & 2000
Used output format : User Defined EncoderSelected bitrate : 128 kBit/sQuality : HighAdd ID3 tag : NoCommand line compressor : C:\Program Files (x86)\Exact Audio Copy\Flac\flac.exeAdditional command line options : -V -8 -T "Date=%year%" -T "Genre=%genre%" %source%
TOC of the extracted CD
Track | Start | Length | Start sector | End sector --------------------------------------------------------- 1 | 0:00.00 | 7:42.14 | 0 | 34663 2 | 7:42.14 | 4:34.40 | 34664 | 55253 3 | 12:16.54 | 10:26.46 | 55254 | 102249 4 | 22:43.25 | 13:06.16 | 102250 | 161215 5 | 35:49.41 | 3:45.45 | 161216 | 178135 6 | 39:35.11 | 5:58.51 | 178136 | 205036 7 | 45:33.62 | 3:59.60 | 205037 | 223021 8 | 49:33.47 | 4:22.19 | 223022 | 242690 9 | 53:55.66 | 1:16.71 | 242691 | 248461 10 | 55:12.62 | 11:21.13 | 248462 | 299549
Range status and errors
Selected range
Filename C:\temp\Naxos_8.559642 - Baker - The Glass Bead Game\Baker - The Glass Bead Game.wav
Peak level 96.9 % Extraction speed 5.2 X Range quality 100.0 % Test CRC 52FFADF5 Copy CRC 52FFADF5 Copy OK
No errors occurred
AccurateRip summary
Track 1 accurately ripped (confidence 1) [5125C0BB] (AR v2)Track 2 accurately ripped (confidence 1) [59647DFA] (AR v2)Track 3 accurately ripped (confidence 1) [AB1794DB] (AR v2)Track 4 accurately ripped (confidence 1) [88E19537] (AR v2)Track 5 accurately ripped (confidence 1) [A14B43CA] (AR v2)Track 6 accurately ripped (confidence 1) [AD932C95] (AR v2)Track 7 accurately ripped (confidence 1) [0C346983] (AR v2)Track 8 accurately ripped (confidence 1) [2F36CA4C] (AR v2)Track 9 accurately ripped (confidence 1) [7F6E2A58] (AR v2)Track 10 accurately ripped (confidence 1) [B894D54B] (AR v2)
All tracks accurately ripped
End of status report
==== Log checksum F6D7320893F68D935A750F28F8E7B5C683EAAC364901F6BAB3927B855DB32CA3 ====



Показать сообщения:    

Текущее время: 08-Дек 01:17

Часовой пояс: UTC + 3


Вы не можете начинать темы
Вы не можете отвечать на сообщения
Вы не можете редактировать свои сообщения
Вы не можете удалять свои сообщения
Вы не можете голосовать в опросах
Вы не можете прикреплять файлы к сообщениям
Вы не можете скачивать файлы