(Baroque sinfonie da camera) Nicola Porpora - 6 Sinfonie da camera Оp.2 (Artificii Musicali, Guy Delvaux) - 1992, FLAC (image+.cue) lossless


 

[Цитировать]

Nicola Porpora 6 Sinfonie da camera Оp.2

Жанр: Baroque sinfonie da camera
Страна-производитель диска: Made in Italy
Год издания диска: 1992
Издатель (лейбл): NUOVA EVA RECORDS
Номер по каталогу: ORF033
Дата записи: 1992
Аудиокодек: FLAC
Тип рипа: image+.cue
Битрейт аудио: lossless
Продолжительность: 70'24
Источник: релизер
сайт-источник/ник/другое: curumo (Boris Andonovski), по моей просьбе
Наличие сканов в содержимом раздачи: да
Треклист:

скрытый текст

Sinfonie de Camera Op. 2
No 4 in D major 10:19
No 5 in E minor 11:49
No 3 in G minor 13:32
No 1 in G major 10:27
No 2 in C major 12:05
No 6 in B flat major 11:58
1. Sinfonia n.4 in D major 2:35
2. 2:44
3. 2:03
4. 2:58
5. Sinfonia n.5 in E minor 2:09
6. 3:47
7. 2:20
8. 3:35
9. Sinfonia n.3 in G minor 3:52
10. 3:02
11. 2:22
12. 4:18
13. Sinfonia n.1 in G major 2:07
14. 4:18
15. 2:44
16. 1:20
17 Sinfonia n.2 in C major 2:07
18 2:56
19 2:53
20 4:12
21. Sinfonia n.6 in B flat major 3:09
22. 4:15
23. 1:50
24. 0:24
25. 2:25
Исполнители:

скрытый текст

Nicola Porpora
6 Sinfonie da camera Оp.2
Artificii Musicali
руководитель Guy Delvaux (клавесин)

Лог создания рипа

Exact Audio Copy V1.0 beta 6 from 9. April 2015
EAC extraction logfile from 31. May 2015, 20:16
Artifizii Musicali / 6 Sinfonie da camera Op. 2
Used drive : HL-DT-STDVD-RAM GH22LS30 Adapter: 1 ID: 0
Read mode : SecureUtilize accurate stream : YesDefeat audio cache : YesMake use of C2 pointers : No
Read offset correction : 102Overread into Lead-In and Lead-Out : NoFill up missing offset samples with silence : YesDelete leading and trailing silent blocks : NoNull samples used in CRC calculations : YesUsed interface : Native Win32 interface for Win NT & 2000
Used output format : User Defined EncoderSelected bitrate : 768 kBit/sQuality : HighAdd ID3 tag : NoCommand line compressor : C:\Program Files (x86)\Exact Audio Copy\FLAC\FLAC.EXEAdditional command line options : -6 -V -T "ARTIST=%artist%" -T "TITLE=%title%" -T "ALBUM=%albumtitle%" -T "DATE=%year%" -T "TRACKNUMBER=%tracknr%" -T "GENRE=%genre%" -T "COMMENT=%comment%" -T "BAND=%albuminterpret%" -T "ALBUMARTIST=%albuminterpret%" -T "COMPOSER=%composer%" %haslyrics%--tag-from-file=LYRICS="%lyricsfile%"%haslyrics% -T "DISCNUMBER=%cdnumber%" -T "TOTALDISCS=%totalcds%" -T "TOTALTRACKS=%numtracks%" %hascover%--picture="%coverfile%"%hascover% %source% -o %dest%
TOC of the extracted CD
Track | Start | Length | Start sector | End sector --------------------------------------------------------- 1 | 0:00.33 | 2:35.15 | 33 | 11672 2 | 2:35.48 | 2:44.22 | 11673 | 23994 3 | 5:19.70 | 2:03.28 | 23995 | 33247 4 | 7:23.23 | 2:58.25 | 33248 | 46622 5 | 10:21.48 | 2:09.15 | 46623 | 56312 6 | 12:30.63 | 3:47.20 | 56313 | 73357 7 | 16:18.08 | 2:20.25 | 73358 | 83882 8 | 18:38.33 | 3:34.50 | 83883 | 99982 9 | 22:13.08 | 3:52.32 | 99983 | 117414 10 | 26:05.40 | 3:01.53 | 117415 | 131042 11 | 29:07.18 | 2:22.32 | 131043 | 141724 12 | 31:29.50 | 4:18.25 | 141725 | 161099 13 | 35:48.00 | 2:06.55 | 161100 | 170604 14 | 37:54.55 | 4:17.53 | 170605 | 189932 15 | 42:12.33 | 2:44.35 | 189933 | 202267 16 | 44:56.68 | 1:20.20 | 202268 | 208287 17 | 46:17.13 | 2:06.60 | 208288 | 217797 18 | 48:23.73 | 2:56.35 | 217798 | 231032 19 | 51:20.33 | 2:52.65 | 231033 | 243997 20 | 54:13.23 | 4:12.20 | 243998 | 262917 21 | 58:25.43 | 3:08.65 | 262918 | 277082 22 | 61:34.33 | 4:15.00 | 277083 | 296207 23 | 65:49.33 | 1:49.62 | 296208 | 304444 24 | 67:39.20 | 0:23.38 | 304445 | 306207 25 | 68:02.58 | 2:24.50 | 306208 | 317057
Range status and errors
Selected range
Filename G:\RIP\201-300\201-210\203. Porpora - 6 Sinfonie da Camera Op. 2.IC-EAC_Mail.RU.NE.NE\upload\Artifizii Musicali - 6 Sinfonie da camera Op. 2.wav
Peak level 98.8 % Extraction speed 3.0 X Range quality 100.0 % Copy CRC 5002CC92 Copy OK
No errors occurred
AccurateRip summary
Track 1 cannot be verified as accurate (confidence 1) [9F7B56C2], AccurateRip returned [BFDC0A3A] (AR v2)Track 2 cannot be verified as accurate (confidence 1) [3D6D6D93], AccurateRip returned [1B715BC2] (AR v2)Track 3 cannot be verified as accurate (confidence 1) [86768226], AccurateRip returned [A047F73F] (AR v2)Track 4 cannot be verified as accurate (confidence 1) [85E8B4D7], AccurateRip returned [1E9E9175] (AR v2)Track 5 cannot be verified as accurate (confidence 1) [6F1D0FA2], AccurateRip returned [E8889824] (AR v2)Track 6 cannot be verified as accurate (confidence 1) [FE36CF1F], AccurateRip returned [EC3FC2BE] (AR v2)Track 7 cannot be verified as accurate (confidence 1) [7D5D6A3D], AccurateRip returned [CF65E652] (AR v2)Track 8 cannot be verified as accurate (confidence 1) [7812FF00], AccurateRip returned [77470538] (AR v2)Track 9 cannot be verified as accurate (confidence 1) [DF50AC60], AccurateRip returned [31B2FFA8] (AR v2)Track 10 cannot be verified as accurate (confidence 1) [5C6AA464], AccurateRip returned [749C2F76] (AR v2)Track 11 cannot be verified as accurate (confidence 1) [F4A59168], AccurateRip returned [066E3F4F] (AR v2)Track 12 cannot be verified as accurate (confidence 1) [F9432CF6], AccurateRip returned [49BA3D38] (AR v2)Track 13 cannot be verified as accurate (confidence 1) [F2D3FA48], AccurateRip returned [EDCB3A60] (AR v2)Track 14 cannot be verified as accurate (confidence 1) [6D349F3A], AccurateRip returned [C1736790] (AR v2)Track 15 cannot be verified as accurate (confidence 1) [AC652C88], AccurateRip returned [0A96F237] (AR v2)Track 16 cannot be verified as accurate (confidence 1) [F535B583], AccurateRip returned [9A2DFEC8] (AR v2)Track 17 cannot be verified as accurate (confidence 1) [0B1C4904], AccurateRip returned [624D05FC] (AR v2)Track 18 cannot be verified as accurate (confidence 1) [7E46A37C], AccurateRip returned [220C279D] (AR v2)Track 19 cannot be verified as accurate (confidence 1) [57BFAA63], AccurateRip returned [1E44AEC6] (AR v2)Track 20 cannot be verified as accurate (confidence 1) [8D3A1EDA], AccurateRip returned [FF136250] (AR v2)Track 21 cannot be verified as accurate (confidence 1) [011E6ED6], AccurateRip returned [C3892284] (AR v2)Track 22 cannot be verified as accurate (confidence 1) [F90C7A7F], AccurateRip returned [E1179C35] (AR v2)Track 23 cannot be verified as accurate (confidence 1) [9EE66E9F], AccurateRip returned [92152B1C] (AR v2)Track 24 cannot be verified as accurate (confidence 1) [BD31AC99], AccurateRip returned [C286940D] (AR v2)Track 25 cannot be verified as accurate (confidence 1) [D503DA23], AccurateRip returned [8D9CF767] (AR v2)
No tracks could be verified as accurateYou may have a different pressing from the one(s) in the database
End of status report
---- CUETools DB Plugin V2.1.6
[CTDB TOCID: NYQ.NOu.bDlxh2PSCIocK10w9UE-] foundSubmit result: NYQ.NOu.bDlxh2PSCIocK10w9UE- has been confirmedTrack | CTDB Status 1 | (2/2) Accurately ripped 2 | (2/2) Accurately ripped 3 | (2/2) Accurately ripped 4 | (2/2) Accurately ripped 5 | (2/2) Accurately ripped 6 | (2/2) Accurately ripped 7 | (2/2) Accurately ripped 8 | (2/2) Accurately ripped 9 | (2/2) Accurately ripped 10 | (2/2) Accurately ripped 11 | (2/2) Accurately ripped 12 | (2/2) Accurately ripped 13 | (2/2) Accurately ripped 14 | (2/2) Accurately ripped 15 | (2/2) Accurately ripped 16 | (2/2) Accurately ripped 17 | (2/2) Accurately ripped 18 | (2/2) Accurately ripped 19 | (2/2) Accurately ripped 20 | (2/2) Accurately ripped 21 | (2/2) Accurately ripped 22 | (2/2) Accurately ripped 23 | (2/2) Accurately ripped 24 | (2/2) Accurately ripped 25 | (2/2) Accurately ripped
==== Log checksum 0062856601520661879CBBBA66DA63BF591EEEC25A7ACBA8C291C770E1E8339E ====

Содержание индексной карты (.CUE)

REM GENRE classicalREM DATE 1992REM DISCID 71108319REM COMMENT "ExactAudioCopy v1.0b6"PERFORMER "Artifizii Musicali"TITLE "6 Sinfonie da camera Op. 2"FILE "Artifizii Musicali - 6 Sinfonie da camera Op. 2.flac" WAVE TRACK 01 AUDIO TITLE "Sinfonia n.4 in D major" PERFORMER "Artifizii Musicali" INDEX 00 00:00:00 INDEX 01 00:00:33 TRACK 02 AUDIO TITLE "Sinfonia n.4 in D major" PERFORMER "Artifizii Musicali" INDEX 01 02:35:48 TRACK 03 AUDIO TITLE "Sinfonia n.4 in D major" PERFORMER "Artifizii Musicali" INDEX 01 05:19:70 TRACK 04 AUDIO TITLE "Sinfonia n.4 in D major" PERFORMER "Artifizii Musicali" INDEX 01 07:23:23 TRACK 05 AUDIO TITLE "Sinfonia n.5 in E minor" PERFORMER "Artifizii Musicali" INDEX 00 10:16:33 INDEX 01 10:21:48 TRACK 06 AUDIO TITLE "Sinfonia n.5 in E minor" PERFORMER "Artifizii Musicali" INDEX 01 12:30:63 TRACK 07 AUDIO TITLE "Sinfonia n.5 in E minor" PERFORMER "Artifizii Musicali" INDEX 01 16:18:08 TRACK 08 AUDIO TITLE "Sinfonia n.5 in E minor" PERFORMER "Artifizii Musicali" INDEX 01 18:38:33 TRACK 09 AUDIO TITLE "Sinfonia n.3 in G minor" PERFORMER "Artifizii Musicali" INDEX 00 22:07:33 INDEX 01 22:13:08 TRACK 10 AUDIO TITLE "Sinfonia n.3 in G minor" PERFORMER "Artifizii Musicali" INDEX 01 26:05:40 TRACK 11 AUDIO TITLE "Sinfonia n.3 in G minor" PERFORMER "Artifizii Musicali" INDEX 01 29:07:18 TRACK 12 AUDIO TITLE "Sinfonia n.3 in G minor" PERFORMER "Artifizii Musicali" INDEX 01 31:29:50 TRACK 13 AUDIO TITLE "Sinfonia n.1 in G major" PERFORMER "Artifizii Musicali" INDEX 00 35:44:33 INDEX 01 35:48:00 TRACK 14 AUDIO TITLE "Sinfonia n.1 in G major" PERFORMER "Artifizii Musicali" INDEX 01 37:54:55 TRACK 15 AUDIO TITLE "Sinfonia n.1 in G major" PERFORMER "Artifizii Musicali" INDEX 01 42:12:33 TRACK 16 AUDIO TITLE "Sinfonia n.1 in G major" PERFORMER "Artifizii Musicali" INDEX 01 44:56:68 TRACK 17 AUDIO TITLE "Sinfonia n.2 in C major" PERFORMER "Artifizii Musicali" INDEX 00 46:12:33 INDEX 01 46:17:13 TRACK 18 AUDIO TITLE "Sinfonia n.2 in C major" PERFORMER "Artifizii Musicali" INDEX 01 48:23:73 TRACK 19 AUDIO TITLE "Sinfonia n.2 in C major" PERFORMER "Artifizii Musicali" INDEX 01 51:20:33 TRACK 20 AUDIO TITLE "Sinfonia n.2 in C major" PERFORMER "Artifizii Musicali" INDEX 01 54:13:23 TRACK 21 AUDIO TITLE "Sinfonia n.6 in B flat major" PERFORMER "Artifizii Musicali" INDEX 00 58:20:33 INDEX 01 58:25:43 TRACK 22 AUDIO TITLE "Sinfonia n.6 in B flat major" PERFORMER "Artifizii Musicali" INDEX 01 61:34:33 TRACK 23 AUDIO TITLE "Sinfonia n.6 in B flat major" PERFORMER "Artifizii Musicali" INDEX 01 65:49:33 TRACK 24 AUDIO TITLE "Sinfonia n.6 in B flat major" PERFORMER "Artifizii Musicali" INDEX 01 67:39:20 TRACK 25 AUDIO TITLE "Sinfonia n.6 in B flat major" PERFORMER "Artifizii Musicali" INDEX 01 68:02:58



Показать сообщения:    

Текущее время: 09-Дек 16:36

Часовой пояс: UTC + 3


Вы не можете начинать темы
Вы не можете отвечать на сообщения
Вы не можете редактировать свои сообщения
Вы не можете удалять свои сообщения
Вы не можете голосовать в опросах
Вы не можете прикреплять файлы к сообщениям
Вы не можете скачивать файлы