(Classical) Wolfgang Amadeus Mozart - 45 Symphonies - Danish National Chamber Orchestra, Adam Fischer - 12CD - 2013, FLAC (image+.cue) lossless


 

[Цитировать]

Wolfgang Amadeus Mozart - 45 Symphonies - Danish National Chamber Orchestra, Adam Fischer
Жанр: Classical
Страна-производитель диска: Denmark
Год издания диска: 2013
Издатель (лейбл): Dacapo
Номер по каталогу: 8.201201
Дата записи: 2006-2013
Аудиокодек: FLAC
Тип рипа: image+.cue
Битрейт аудио: lossless
Продолжительность: 11:56:42
Источник: собственный рип
Наличие сканов в содержимом раздачи: да
Треклист:
Wolfgang Amadeus Mozart
45 Symphonies

CD01

[1]-[3] Symphony No. 1 in E-flat major, KV 16
[4]-[6] Symphony No. 4 in D major, KV 19
[7]-[9] Symphony in F major, KV 19a
[10]-[12] Symphony No. 5 in B-flat major, KV 22
[13]-[16] Symphony in F major, KV 76 (42a)

CD02

[1]-[4] Symphony No. 6 in F major, KV 43
[5]-[8] Symphony No. 7 in D major, KV 45
[9]-[11] Symphony in G major, KV 45a
[12]-[15] Symphony in B-flat major, KV 45b
[16]-[19] Symphony No. 8 in D major, KV 48

CD03

[1]-[4] Symphony No. 9 in C major, KV 73 (75a)
[5]-[7] Symphony in D major, KV 81 (73l)
[8]-[11] Symphony in D major, KV 97 (73m)
[12]-[15] Symphony in D major, KV 95 (73n)
[16]-[18] Symphony No. 11 in D major, KV 84 (73q)
[19]-[21] Symphony No. 10 in G major, KV 74

CD04

[1]-[4] Symphony No. 12 in G major, KV 110 (75b)
[5]-[8] Symphony in C major, KV 96 (111b)
[9]-[12] Symphony No. 13 in F major, KV 112
[13]-[16] Symphony No. 14 in A major, KV 114

CD05

[1]-[4] Symphony No. 15 in G major, KV 124
[5]-[7] Symphony No. 16 in C major, KV 128
[8]-[10] Symphony No. 17 in G major, KV 129
[11]-[14] Symphony No. 18 in F major, KV 130

CD06

[1]-[4] Symphony No. 19 in E-flat major, KV 132
[5]-[8] Symphony No. 20 in D major, KV 133
[9]-[12] Symphony No. 21 in A major, KV 134
[13]-[15] Symphony No. 26 in E-flat major, KV 184 (161a)

CD07

[1]-[3] Symphony No. 27 in G major, KV 199 (161b)
[4]-[6] Symphony No. 22 in C major, KV 162
[7]-[9] Symphony No. 23 in D major, KV 181 (162b)
[10]-[12] Symphony No. 24 in B-flat major, KV 182 (173dA)
[13]-[16] Symphony No. 25 in G minor, KV 183 (173dB)

CD08

[1]-[4] Symphony No. 29 in A major, KV 201 (KV 186a)
[5]-[8] Symphony No. 30 in D major, KV 202 (KV 186b)
[9]-[12] Symphony No. 28 in C major, KV 200 (KV 189k)

CD09

[1]-[3] Symphony No. 31 in D major, KV 297 (300a) “Paris”
[4]-[7] Symphony No. 33 in B-flat major, KV 319
[8]-[10] Symphony No. 34 in C major, KV 338
[11] Symphony No. 31 in D major, KV 297 (300a) “Paris”
Alternative 2nd movement from 1st edition

CD10

[1]-[4] Symphony No. 35 in D Major, KV 385 “Haffner”
[5]-[7] Symphony No. 38 in D Major, KV 504 “Prague”

CD11

[1]-[4] Symphony No. 36 in C major, KV 425 “Linz”
[5]-[8] Symphony No. 39 in E-flat major, KV 543

CD12

[1]-[4] Symphony No. 40 in G minor, KV 550
[5]-[8] Symphony No. 41 in C major, KV 551 “Jupiter”
Исполнители:
Danish National Chamber Orchestra
Adam Fischer

Лог создания рипа: CD01

Exact Audio Copy V1.0 beta 3 from 29. August 2011
EAC extraction logfile from 3. May 2015, 17:50
Danish National Chamber Orchestra, Adam Fischer / Mozart - 45 Symphonies - CD01
Used drive : HL-DT-STDVDRAM GU70N Adapter: 0 ID: 0
Read mode : SecureUtilize accurate stream : YesDefeat audio cache : YesMake use of C2 pointers : No
Read offset correction : 48Overread into Lead-In and Lead-Out : NoFill up missing offset samples with silence : YesDelete leading and trailing silent blocks : NoNull samples used in CRC calculations : YesUsed interface : Native Win32 interface for Win NT & 2000
Used output format : User Defined EncoderSelected bitrate : 128 kBit/sQuality : HighAdd ID3 tag : NoCommand line compressor : C:\Program Files (x86)\Exact Audio Copy\Flac\flac.exeAdditional command line options : -V -8 -T "Date=%year%" -T "Genre=%genre%" %source%
TOC of the extracted CD
Track | Start | Length | Start sector | End sector --------------------------------------------------------- 1 | 0:00.00 | 6:19.44 | 0 | 28468 2 | 6:19.44 | 4:43.37 | 28469 | 49730 3 | 11:03.06 | 1:29.18 | 49731 | 56423 4 | 12:32.24 | 2:16.48 | 56424 | 66671 5 | 14:48.72 | 3:44.45 | 66672 | 83516 6 | 18:33.42 | 2:56.60 | 83517 | 96776 7 | 21:30.27 | 5:09.35 | 96777 | 119986 8 | 26:39.62 | 4:50.16 | 119987 | 141752 9 | 31:30.03 | 2:38.15 | 141753 | 153617 10 | 34:08.18 | 2:32.60 | 153618 | 165077 11 | 36:41.03 | 2:14.32 | 165078 | 175159 12 | 38:55.35 | 1:16.43 | 175160 | 180902 13 | 40:12.03 | 4:10.66 | 180903 | 199718 14 | 44:22.69 | 3:28.36 | 199719 | 215354 15 | 47:51.30 | 2:53.64 | 215355 | 228393 16 | 50:45.19 | 2:50.65 | 228394 | 241208
Range status and errors
Selected range
Filename C:\temp\Mozart - 45 Symphonies\CD01\Mozart - 45 Symphonies - CD01.wav
Peak level 81.2 % Extraction speed 5.1 X Range quality 100.0 % Test CRC 3FF3F43F Copy CRC 3FF3F43F Copy OK
No errors occurred
AccurateRip summary
Track 1 accurately ripped (confidence 6) [FEC72F99] (AR v2)Track 2 accurately ripped (confidence 6) [426BFF70] (AR v2)Track 3 accurately ripped (confidence 6) [7BB2A0AC] (AR v2)Track 4 accurately ripped (confidence 6) [C39F7D97] (AR v2)Track 5 accurately ripped (confidence 6) [4D7EB6ED] (AR v2)Track 6 accurately ripped (confidence 6) [08CB0B7C] (AR v2)Track 7 accurately ripped (confidence 6) [F892F0A3] (AR v2)Track 8 accurately ripped (confidence 6) [1283E243] (AR v2)Track 9 accurately ripped (confidence 6) [78222120] (AR v2)Track 10 accurately ripped (confidence 6) [F9C048AD] (AR v2)Track 11 accurately ripped (confidence 6) [521BC027] (AR v2)Track 12 accurately ripped (confidence 6) [059885EB] (AR v2)Track 13 accurately ripped (confidence 6) [465391C8] (AR v2)Track 14 accurately ripped (confidence 6) [39CCDEC3] (AR v2)Track 15 accurately ripped (confidence 6) [BF62B2EC] (AR v2)Track 16 accurately ripped (confidence 6) [55ED1D44] (AR v2)
All tracks accurately ripped
End of status report
==== Log checksum B69ADBA953690236FA7D212B63A50EAE9C31628E732711570F0B29AF86120C28 ====

Лог создания рипа: CD02

Exact Audio Copy V1.0 beta 3 from 29. August 2011
EAC extraction logfile from 3. May 2015, 18:54
Danish National Chamber Orchestra, Adam Fischer / Mozart - 45 Symphonies - CD02
Used drive : HL-DT-STDVDRAM GU70N Adapter: 0 ID: 0
Read mode : SecureUtilize accurate stream : YesDefeat audio cache : YesMake use of C2 pointers : No
Read offset correction : 48Overread into Lead-In and Lead-Out : NoFill up missing offset samples with silence : YesDelete leading and trailing silent blocks : NoNull samples used in CRC calculations : YesUsed interface : Native Win32 interface for Win NT & 2000
Used output format : User Defined EncoderSelected bitrate : 128 kBit/sQuality : HighAdd ID3 tag : NoCommand line compressor : C:\Program Files (x86)\Exact Audio Copy\Flac\flac.exeAdditional command line options : -V -8 -T "Date=%year%" -T "Genre=%genre%" %source%
TOC of the extracted CD
Track | Start | Length | Start sector | End sector --------------------------------------------------------- 1 | 0:00.00 | 5:28.21 | 0 | 24620 2 | 5:28.21 | 4:35.54 | 24621 | 45299 3 | 10:04.00 | 1:48.72 | 45300 | 53471 4 | 11:52.72 | 3:17.51 | 53472 | 68297 5 | 15:10.48 | 2:29.15 | 68298 | 79487 6 | 17:39.63 | 1:47.08 | 79488 | 87520 7 | 19:26.71 | 3:08.69 | 87521 | 101689 8 | 22:35.65 | 2:38.37 | 101690 | 113576 9 | 25:14.27 | 5:04.21 | 113577 | 136397 10 | 30:18.48 | 4:27.54 | 136398 | 156476 11 | 34:46.27 | 2:28.15 | 156477 | 167591 12 | 37:14.42 | 2:06.16 | 167592 | 177057 13 | 39:20.58 | 2:46.15 | 177058 | 189522 14 | 42:06.73 | 2:38.39 | 189523 | 201411 15 | 44:45.37 | 2:26.70 | 201412 | 212431 16 | 47:12.32 | 4:10.70 | 212432 | 231251 17 | 51:23.27 | 2:53.13 | 231252 | 244239 18 | 54:16.40 | 3:12.71 | 244240 | 258710 19 | 57:29.36 | 2:56.53 | 258711 | 271963
Range status and errors
Selected range
Filename C:\temp\Mozart - 45 Symphonies\CD02\Mozart - 45 Symphonies - CD02.wav
Peak level 99.4 % Extraction speed 2.2 X Range quality 100.0 % Test CRC 2E9B8C3D Copy CRC 2E9B8C3D Copy OK
No errors occurred
AccurateRip summary
Track 1 accurately ripped (confidence 6) [7E9B5376] (AR v2)Track 2 accurately ripped (confidence 6) [CE5C6356] (AR v2)Track 3 accurately ripped (confidence 6) [E930A431] (AR v2)Track 4 accurately ripped (confidence 6) [B15A4546] (AR v2)Track 5 accurately ripped (confidence 6) [EA39DCB9] (AR v2)Track 6 accurately ripped (confidence 6) [7AC17FDB] (AR v2)Track 7 accurately ripped (confidence 6) [9720F4FD] (AR v2)Track 8 accurately ripped (confidence 6) [B30AAE38] (AR v2)Track 9 accurately ripped (confidence 6) [0F04C3BB] (AR v2)Track 10 accurately ripped (confidence 6) [ECE45DD0] (AR v2)Track 11 accurately ripped (confidence 6) [63F06552] (AR v2)Track 12 accurately ripped (confidence 6) [CB13E8FD] (AR v2)Track 13 accurately ripped (confidence 6) [655DEAD6] (AR v2)Track 14 accurately ripped (confidence 6) [43388D10] (AR v2)Track 15 accurately ripped (confidence 6) [450B57F5] (AR v2)Track 16 accurately ripped (confidence 6) [F027BD2A] (AR v2)Track 17 accurately ripped (confidence 6) [305AAE63] (AR v2)Track 18 accurately ripped (confidence 6) [1671F491] (AR v2)Track 19 accurately ripped (confidence 6) [EAB937C8] (AR v2)
All tracks accurately ripped
End of status report
==== Log checksum CA573E98D94F5307DED92842D2E471EE660EE9F0E86E565096A931C27E92719C ====

Лог создания рипа: CD03

Exact Audio Copy V1.0 beta 3 from 29. August 2011
EAC extraction logfile from 3. May 2015, 19:27
Danish National Chamber Orchestra, Adam Fischer / Mozart - 45 Symphonies - CD03
Used drive : HL-DT-STDVDRAM GU70N Adapter: 0 ID: 0
Read mode : SecureUtilize accurate stream : YesDefeat audio cache : YesMake use of C2 pointers : No
Read offset correction : 48Overread into Lead-In and Lead-Out : NoFill up missing offset samples with silence : YesDelete leading and trailing silent blocks : NoNull samples used in CRC calculations : YesUsed interface : Native Win32 interface for Win NT & 2000
Used output format : User Defined EncoderSelected bitrate : 128 kBit/sQuality : HighAdd ID3 tag : NoCommand line compressor : C:\Program Files (x86)\Exact Audio Copy\Flac\flac.exeAdditional command line options : -V -8 -T "Date=%year%" -T "Genre=%genre%" %source%
TOC of the extracted CD
Track | Start | Length | Start sector | End sector --------------------------------------------------------- 1 | 0:00.00 | 2:46.73 | 0 | 12522 2 | 2:46.73 | 2:37.70 | 12523 | 24367 3 | 5:24.68 | 2:17.36 | 24368 | 34678 4 | 7:42.29 | 1:51.31 | 34679 | 43034 5 | 9:33.60 | 2:48.29 | 43035 | 55663 6 | 12:22.14 | 3:25.70 | 55664 | 71108 7 | 15:48.09 | 2:30.18 | 71109 | 82376 8 | 18:18.27 | 2:23.08 | 82377 | 93109 9 | 20:41.35 | 2:31.25 | 93110 | 104459 10 | 23:12.60 | 2:04.15 | 104460 | 113774 11 | 25:17.00 | 1:24.28 | 113775 | 120102 12 | 26:41.28 | 2:00.21 | 120103 | 129123 13 | 28:41.49 | 2:37.66 | 129124 | 140964 14 | 31:19.40 | 2:21.57 | 140965 | 151596 15 | 33:41.22 | 2:59.30 | 151597 | 165051 16 | 36:40.52 | 3:24.72 | 165052 | 180423 17 | 40:05.49 | 2:19.36 | 180424 | 190884 18 | 42:25.10 | 4:34.64 | 190885 | 211498 19 | 46:59.74 | 2:58.55 | 211499 | 224903 20 | 49:58.54 | 2:11.51 | 224904 | 234779 21 | 52:10.30 | 1:58.48 | 234780 | 243677
Range status and errors
Selected range
Filename C:\temp\Mozart - 45 Symphonies\CD03\Mozart - 45 Symphonies - CD03.wav
Peak level 89.7 % Extraction speed 5.1 X Range quality 100.0 % Test CRC 46664493 Copy CRC 46664493 Copy OK
No errors occurred
AccurateRip summary
Track 1 accurately ripped (confidence 6) [75965539] (AR v2)Track 2 accurately ripped (confidence 6) [BA8018F0] (AR v2)Track 3 accurately ripped (confidence 6) [F9427CB1] (AR v2)Track 4 accurately ripped (confidence 6) [8A79E36D] (AR v2)Track 5 accurately ripped (confidence 6) [20206ED0] (AR v2)Track 6 accurately ripped (confidence 6) [20632C5C] (AR v2)Track 7 accurately ripped (confidence 6) [1E54212A] (AR v2)Track 8 accurately ripped (confidence 6) [515073DD] (AR v2)Track 9 accurately ripped (confidence 6) [A2C5CE7C] (AR v2)Track 10 accurately ripped (confidence 6) [578CF0A2] (AR v2)Track 11 accurately ripped (confidence 6) [56436150] (AR v2)Track 12 accurately ripped (confidence 6) [0BF66A70] (AR v2)Track 13 accurately ripped (confidence 6) [432A8F4B] (AR v2)Track 14 accurately ripped (confidence 6) [155C6057] (AR v2)Track 15 accurately ripped (confidence 6) [9F086FA1] (AR v2)Track 16 accurately ripped (confidence 6) [89014ACB] (AR v2)Track 17 accurately ripped (confidence 6) [461FE055] (AR v2)Track 18 accurately ripped (confidence 6) [BAAFBE4B] (AR v2)Track 19 accurately ripped (confidence 6) [07B86685] (AR v2)Track 20 accurately ripped (confidence 6) [DDDC1130] (AR v2)Track 21 accurately ripped (confidence 6) [DE7F2939] (AR v2)
All tracks accurately ripped
End of status report
==== Log checksum 59198A80728B955BABD3757BA48007C8F9DF7CD6CF1CAED95DEB789FFF95AE80 ====

Лог создания рипа: CD04

Exact Audio Copy V1.0 beta 3 from 29. August 2011
EAC extraction logfile from 3. May 2015, 19:59
Danish National Chamber Orchestra, Adam Fischer / Mozart - 45 Symphonies - CD04
Used drive : HL-DT-STDVDRAM GU70N Adapter: 0 ID: 0
Read mode : SecureUtilize accurate stream : YesDefeat audio cache : YesMake use of C2 pointers : No
Read offset correction : 48Overread into Lead-In and Lead-Out : NoFill up missing offset samples with silence : YesDelete leading and trailing silent blocks : NoNull samples used in CRC calculations : YesUsed interface : Native Win32 interface for Win NT & 2000
Used output format : User Defined EncoderSelected bitrate : 128 kBit/sQuality : HighAdd ID3 tag : NoCommand line compressor : C:\Program Files (x86)\Exact Audio Copy\Flac\flac.exeAdditional command line options : -V -8 -T "Date=%year%" -T "Genre=%genre%" %source%
TOC of the extracted CD
Track | Start | Length | Start sector | End sector --------------------------------------------------------- 1 | 0:00.00 | 5:37.63 | 0 | 25337 2 | 5:37.63 | 3:29.61 | 25338 | 41073 3 | 9:07.49 | 3:18.03 | 41074 | 55926 4 | 12:25.52 | 1:55.21 | 55927 | 64572 5 | 14:20.73 | 1:46.02 | 64573 | 72524 6 | 16:07.00 | 3:57.50 | 72525 | 90349 7 | 20:04.50 | 2:44.22 | 90350 | 102671 8 | 22:48.72 | 2:57.05 | 102672 | 115951 9 | 25:46.02 | 3:42.12 | 115952 | 132613 10 | 29:28.14 | 3:02.74 | 132614 | 146337 11 | 32:31.13 | 1:43.34 | 146338 | 154096 12 | 34:14.47 | 2:10.12 | 154097 | 163858 13 | 36:24.59 | 6:45.34 | 163859 | 194267 14 | 43:10.18 | 4:24.46 | 194268 | 214113 15 | 47:34.64 | 2:41.06 | 214114 | 226194 16 | 50:15.70 | 3:56.48 | 226195 | 243942
Range status and errors
Selected range
Filename C:\temp\Mozart - 45 Symphonies\CD04\Mozart - 45 Symphonies - CD04.wav
Peak level 89.0 % Extraction speed 5.1 X Range quality 100.0 % Test CRC 6E28C0DD Copy CRC 6E28C0DD Copy OK
No errors occurred
AccurateRip summary
Track 1 accurately ripped (confidence 4) [77AECCA0] (AR v2)Track 2 accurately ripped (confidence 4) [C8D726AF] (AR v2)Track 3 accurately ripped (confidence 4) [EA731CEC] (AR v2)Track 4 accurately ripped (confidence 4) [462A3BB4] (AR v2)Track 5 accurately ripped (confidence 4) [C07E3ABF] (AR v2)Track 6 accurately ripped (confidence 4) [DE7FE488] (AR v2)Track 7 accurately ripped (confidence 4) [E494CCB5] (AR v2)Track 8 accurately ripped (confidence 4) [752A3B81] (AR v2)Track 9 accurately ripped (confidence 4) [8425B98C] (AR v2)Track 10 accurately ripped (confidence 4) [2A74647D] (AR v2)Track 11 accurately ripped (confidence 4) [B383EFE7] (AR v2)Track 12 accurately ripped (confidence 4) [2AF11A22] (AR v2)Track 13 accurately ripped (confidence 4) [519B0C80] (AR v2)Track 14 accurately ripped (confidence 4) [1DD046C6] (AR v2)Track 15 accurately ripped (confidence 4) [DA1B0009] (AR v2)Track 16 accurately ripped (confidence 4) [F1CE5971] (AR v2)
All tracks accurately ripped
End of status report
==== Log checksum 0059984CCED8AE6E7593832EC3CD3EEF9869A6C17BDED8CADFCC3912DD1248AC ====

Лог создания рипа: CD05

Exact Audio Copy V1.0 beta 3 from 29. August 2011
EAC extraction logfile from 3. May 2015, 20:34
Danish National Chamber Orchestra, Adam Fischer / Mozart - 45 Symphonies - CD05
Used drive : HL-DT-STDVDRAM GU70N Adapter: 0 ID: 0
Read mode : SecureUtilize accurate stream : YesDefeat audio cache : YesMake use of C2 pointers : No
Read offset correction : 48Overread into Lead-In and Lead-Out : NoFill up missing offset samples with silence : YesDelete leading and trailing silent blocks : NoNull samples used in CRC calculations : YesUsed interface : Native Win32 interface for Win NT & 2000
Used output format : User Defined EncoderSelected bitrate : 128 kBit/sQuality : HighAdd ID3 tag : NoCommand line compressor : C:\Program Files (x86)\Exact Audio Copy\Flac\flac.exeAdditional command line options : -V -8 -T "Date=%year%" -T "Genre=%genre%" %source%
TOC of the extracted CD
Track | Start | Length | Start sector | End sector --------------------------------------------------------- 1 | 0:00.00 | 4:44.45 | 0 | 21344 2 | 4:44.45 | 4:15.68 | 21345 | 40537 3 | 9:00.38 | 3:15.57 | 40538 | 55219 4 | 12:16.20 | 2:01.14 | 55220 | 64308 5 | 14:17.34 | 4:17.66 | 64309 | 83649 6 | 18:35.25 | 4:16.54 | 83650 | 102903 7 | 22:52.04 | 3:23.04 | 102904 | 118132 8 | 26:15.08 | 6:07.46 | 118133 | 145703 9 | 32:22.54 | 4:41.66 | 145704 | 166844 10 | 37:04.45 | 3:38.04 | 166845 | 183198 11 | 40:42.49 | 5:08.42 | 183199 | 206340 12 | 45:51.16 | 4:13.22 | 206341 | 225337 13 | 50:04.38 | 2:15.12 | 225338 | 235474 14 | 52:19.50 | 6:23.33 | 235475 | 264232
Range status and errors
Selected range
Filename C:\temp\Mozart - 45 Symphonies\CD05\Mozart - 45 Symphonies - CD05.wav
Peak level 99.3 % Extraction speed 5.2 X Range quality 100.0 % Test CRC C61BC0D8 Copy CRC C61BC0D8 Copy OK
No errors occurred
AccurateRip summary
Track 1 accurately ripped (confidence 8) [D2A3A2DB] (AR v2)Track 2 accurately ripped (confidence 8) [B8C32263] (AR v2)Track 3 accurately ripped (confidence 8) [F824E566] (AR v2)Track 4 accurately ripped (confidence 8) [8848B456] (AR v2)Track 5 accurately ripped (confidence 8) [EFA2B8C4] (AR v2)Track 6 accurately ripped (confidence 8) [3788ABA1] (AR v2)Track 7 accurately ripped (confidence 8) [398E84BB] (AR v2)Track 8 accurately ripped (confidence 8) [52EBE20C] (AR v2)Track 9 accurately ripped (confidence 8) [F285AE2D] (AR v2)Track 10 accurately ripped (confidence 8) [877AC5AD] (AR v2)Track 11 accurately ripped (confidence 8) [28815696] (AR v2)Track 12 accurately ripped (confidence 8) [6FD7EB30] (AR v2)Track 13 accurately ripped (confidence 8) [43546097] (AR v2)Track 14 accurately ripped (confidence 8) [BC6C06A0] (AR v2)
All tracks accurately ripped
End of status report
==== Log checksum 3CF0F5C6A3FA73E45997ECDF5BD222246560DE90F4B56D2A18A4D9BC2C4AAD5B ====

Лог создания рипа: CD06

Exact Audio Copy V1.0 beta 3 from 29. August 2011
EAC extraction logfile from 3. May 2015, 21:42
Danish National Chamber Orchestra, Adam Fischer / Mozart - 45 Symphonies - CD06
Used drive : HL-DT-STDVDRAM GU70N Adapter: 0 ID: 0
Read mode : SecureUtilize accurate stream : YesDefeat audio cache : YesMake use of C2 pointers : No
Read offset correction : 48Overread into Lead-In and Lead-Out : NoFill up missing offset samples with silence : YesDelete leading and trailing silent blocks : NoNull samples used in CRC calculations : YesUsed interface : Native Win32 interface for Win NT & 2000
Used output format : User Defined EncoderSelected bitrate : 128 kBit/sQuality : HighAdd ID3 tag : NoCommand line compressor : C:\Program Files (x86)\Exact Audio Copy\Flac\flac.exeAdditional command line options : -V -8 -T "Date=%year%" -T "Genre=%genre%" %source%
TOC of the extracted CD
Track | Start | Length | Start sector | End sector --------------------------------------------------------- 1 | 0:00.00 | 3:54.65 | 0 | 17614 2 | 3:54.65 | 6:09.25 | 17615 | 45314 3 | 10:04.15 | 3:35.62 | 45315 | 61501 4 | 13:40.02 | 3:58.47 | 61502 | 79398 5 | 17:38.49 | 9:51.31 | 79399 | 123754 6 | 27:30.05 | 6:09.73 | 123755 | 151502 7 | 33:40.03 | 3:16.25 | 151503 | 166227 8 | 36:56.28 | 5:45.11 | 166228 | 192113 9 | 42:41.39 | 4:55.03 | 192114 | 214241 10 | 47:36.42 | 4:30.68 | 214242 | 234559 11 | 52:07.35 | 3:12.18 | 234560 | 248977 12 | 55:19.53 | 4:34.37 | 248978 | 269564 13 | 59:54.15 | 2:47.37 | 269565 | 282126 14 | 62:41.52 | 2:57.56 | 282127 | 295457 15 | 65:39.33 | 2:14.35 | 295458 | 305542
Range status and errors
Selected range
Filename C:\temp\Mozart - 45 Symphonies\CD06\Mozart - 45 Symphonies - CD06.wav
Peak level 99.1 % Extraction speed 2.2 X Range quality 100.0 % Test CRC 5F0442F4 Copy CRC 5F0442F4 Copy OK
No errors occurred
AccurateRip summary
Track 1 accurately ripped (confidence 10) [2BB5A2D9] (AR v2)Track 2 accurately ripped (confidence 10) [BAFC92B5] (AR v2)Track 3 accurately ripped (confidence 10) [BA5855DF] (AR v2)Track 4 accurately ripped (confidence 10) [91A6570D] (AR v2)Track 5 accurately ripped (confidence 10) [F5598833] (AR v2)Track 6 accurately ripped (confidence 10) [869B2960] (AR v2)Track 7 accurately ripped (confidence 10) [9D2679BA] (AR v2)Track 8 accurately ripped (confidence 10) [F131123A] (AR v2)Track 9 accurately ripped (confidence 10) [B4FFC0D9] (AR v2)Track 10 accurately ripped (confidence 10) [96053A87] (AR v2)Track 11 accurately ripped (confidence 10) [B770BDC7] (AR v2)Track 12 accurately ripped (confidence 10) [9A93F50A] (AR v2)Track 13 accurately ripped (confidence 10) [5CE91A65] (AR v2)Track 14 accurately ripped (confidence 10) [5D5E2956] (AR v2)Track 15 accurately ripped (confidence 10) [509D3CD3] (AR v2)
All tracks accurately ripped
End of status report
==== Log checksum 6CA6EF8602B65DB7E0CD88726C44F952B1E27488ECCD472D61F1C70B50B45470 ====

Лог создания рипа: CD07

Exact Audio Copy V1.0 beta 3 from 29. August 2011
EAC extraction logfile from 4. May 2015, 20:58
Danish National Chamber Orchestra, Adam Fischer / Mozart - 45 Symphonies - CD07
Used drive : HL-DT-STDVDRAM GU70N Adapter: 0 ID: 0
Read mode : SecureUtilize accurate stream : YesDefeat audio cache : YesMake use of C2 pointers : No
Read offset correction : 48Overread into Lead-In and Lead-Out : NoFill up missing offset samples with silence : YesDelete leading and trailing silent blocks : NoNull samples used in CRC calculations : YesUsed interface : Native Win32 interface for Win NT & 2000
Used output format : User Defined EncoderSelected bitrate : 128 kBit/sQuality : HighAdd ID3 tag : NoCommand line compressor : C:\Program Files (x86)\Exact Audio Copy\Flac\flac.exeAdditional command line options : -V -8 -T "Date=%year%" -T "Genre=%genre%" %source%
TOC of the extracted CD
Track | Start | Length | Start sector | End sector --------------------------------------------------------- 1 | 0:00.00 | 4:13.64 | 0 | 19038 2 | 4:13.64 | 4:18.07 | 19039 | 38395 3 | 8:31.71 | 5:34.37 | 38396 | 63482 4 | 14:06.33 | 3:09.47 | 63483 | 77704 5 | 17:16.05 | 2:38.13 | 77705 | 89567 6 | 19:54.18 | 1:50.53 | 89568 | 97870 7 | 21:44.71 | 4:53.19 | 97871 | 119864 8 | 26:38.15 | 2:03.34 | 119865 | 129123 9 | 28:41.49 | 2:06.65 | 129124 | 138638 10 | 30:48.39 | 3:58.35 | 138639 | 156523 11 | 34:46.74 | 2:18.64 | 156524 | 166937 12 | 37:05.63 | 3:07.70 | 166938 | 181032 13 | 40:13.58 | 9:44.49 | 181033 | 224881 14 | 49:58.32 | 5:35.49 | 224882 | 250055 15 | 55:34.06 | 3:02.20 | 250056 | 263725 16 | 58:36.26 | 6:41.55 | 263726 | 293855
Range status and errors
Selected range
Filename C:\temp\Mozart - 45 Symphonies\CD07\Mozart - 45 Symphonies - CD07.wav
Peak level 94.0 % Extraction speed 2.2 X Range quality 100.0 % Test CRC 29F38402 Copy CRC 29F38402 Copy OK
No errors occurred
AccurateRip summary
Track 1 accurately ripped (confidence 5) [C9012FD1] (AR v2)Track 2 accurately ripped (confidence 4) [AD1BD434] (AR v2)Track 3 accurately ripped (confidence 5) [48730AC0] (AR v2)Track 4 accurately ripped (confidence 5) [512C982F] (AR v2)Track 5 accurately ripped (confidence 5) [E12F468D] (AR v2)Track 6 accurately ripped (confidence 5) [BBC71AA9] (AR v2)Track 7 accurately ripped (confidence 5) [0C99788C] (AR v2)Track 8 accurately ripped (confidence 5) [68C3DBEF] (AR v2)Track 9 accurately ripped (confidence 5) [D58AF8EE] (AR v2)Track 10 accurately ripped (confidence 5) [43016385] (AR v2)Track 11 accurately ripped (confidence 5) [1B98EA32] (AR v2)Track 12 accurately ripped (confidence 5) [2231E3FD] (AR v2)Track 13 accurately ripped (confidence 5) [0BEC33DD] (AR v2)Track 14 accurately ripped (confidence 5) [D584DF21] (AR v2)Track 15 accurately ripped (confidence 5) [37CA8463] (AR v2)Track 16 accurately ripped (confidence 5) [314DF4B0] (AR v2)
All tracks accurately ripped
End of status report
==== Log checksum CFCD472BB9084C8F1A071781B65A2F3E695607E25BFD7F08AA65C42C1343B40A ====

Лог создания рипа: CD08

Exact Audio Copy V1.0 beta 3 from 29. August 2011
EAC extraction logfile from 4. May 2015, 22:05
Danish National Chamber Orchestra, Adam Fischer / Mozart - 45 Symphonies - CD08
Used drive : HL-DT-STDVDRAM GU70N Adapter: 0 ID: 0
Read mode : SecureUtilize accurate stream : YesDefeat audio cache : YesMake use of C2 pointers : No
Read offset correction : 48Overread into Lead-In and Lead-Out : NoFill up missing offset samples with silence : YesDelete leading and trailing silent blocks : NoNull samples used in CRC calculations : YesUsed interface : Native Win32 interface for Win NT & 2000
Used output format : User Defined EncoderSelected bitrate : 128 kBit/sQuality : HighAdd ID3 tag : NoCommand line compressor : C:\Program Files (x86)\Exact Audio Copy\Flac\flac.exeAdditional command line options : -V -8 -T "Date=%year%" -T "Genre=%genre%" %source%
TOC of the extracted CD
Track | Start | Length | Start sector | End sector --------------------------------------------------------- 1 | 0:00.00 | 9:17.15 | 0 | 41789 2 | 9:17.15 | 6:42.22 | 41790 | 71961 3 | 15:59.37 | 3:29.46 | 71962 | 87682 4 | 19:29.08 | 6:45.58 | 87683 | 118115 5 | 26:14.66 | 5:49.18 | 118116 | 144308 6 | 32:04.09 | 4:42.25 | 144309 | 165483 7 | 36:46.34 | 3:36.04 | 165484 | 181687 8 | 40:22.38 | 4:49.63 | 181688 | 203425 9 | 45:12.26 | 7:16.64 | 203426 | 236189 10 | 52:29.15 | 6:05.26 | 236190 | 263590 11 | 58:34.41 | 3:33.49 | 263591 | 279614 12 | 62:08.15 | 5:07.73 | 279615 | 302712
Range status and errors
Selected range
Filename C:\temp\Mozart - 45 Symphonies\CD08\Mozart - 45 Symphonies - CD08.wav
Peak level 93.3 % Extraction speed 2.2 X Range quality 100.0 % Test CRC 99101B7B Copy CRC 99101B7B Copy OK
No errors occurred
AccurateRip summary
Track 1 accurately ripped (confidence 5) [94966920] (AR v2)Track 2 accurately ripped (confidence 5) [E7C1CA88] (AR v2)Track 3 accurately ripped (confidence 5) [E343ACF6] (AR v2)Track 4 accurately ripped (confidence 5) [FE3E69D6] (AR v2)Track 5 accurately ripped (confidence 5) [E2DFA4FC] (AR v2)Track 6 accurately ripped (confidence 5) [CB87DEB7] (AR v2)Track 7 accurately ripped (confidence 5) [49DDBD6F] (AR v2)Track 8 accurately ripped (confidence 5) [B3D1A9DD] (AR v2)Track 9 accurately ripped (confidence 5) [CF0C907C] (AR v2)Track 10 accurately ripped (confidence 5) [CACDBABD] (AR v2)Track 11 accurately ripped (confidence 5) [ECCA3C95] (AR v2)Track 12 accurately ripped (confidence 5) [528AFB7C] (AR v2)
All tracks accurately ripped
End of status report
==== Log checksum B9E302A8C84EFCBE71A59E0BF86D35E0947173662FC29F70F873A7750BD43277 ====

Лог создания рипа: CD09

Exact Audio Copy V1.0 beta 3 from 29. August 2011
EAC extraction logfile from 5. May 2015, 0:33
Danish National Chamber Orchestra, Adam Fischer / Mozart - 45 Symphonies - CD09
Used drive : HL-DT-STDVDRAM GU70N Adapter: 0 ID: 0
Read mode : SecureUtilize accurate stream : YesDefeat audio cache : YesMake use of C2 pointers : No
Read offset correction : 48Overread into Lead-In and Lead-Out : NoFill up missing offset samples with silence : YesDelete leading and trailing silent blocks : NoNull samples used in CRC calculations : YesUsed interface : Native Win32 interface for Win NT & 2000
Used output format : User Defined EncoderSelected bitrate : 128 kBit/sQuality : HighAdd ID3 tag : NoCommand line compressor : C:\Program Files (x86)\Exact Audio Copy\Flac\flac.exeAdditional command line options : -V -8 -T "Date=%year%" -T "Genre=%genre%" %source%
TOC of the extracted CD
Track | Start | Length | Start sector | End sector --------------------------------------------------------- 1 | 0:00.00 | 6:54.36 | 0 | 31085 2 | 6:54.36 | 4:42.05 | 31086 | 52240 3 | 11:36.41 | 3:36.13 | 52241 | 68453 4 | 15:12.54 | 6:21.08 | 68454 | 97036 5 | 21:33.62 | 4:04.45 | 97037 | 115381 6 | 25:38.32 | 2:29.19 | 115382 | 126575 7 | 28:07.51 | 8:22.13 | 126576 | 164238 8 | 36:29.64 | 7:09.18 | 164239 | 196431 9 | 43:39.07 | 5:47.42 | 196432 | 222498 10 | 49:26.49 | 7:06.46 | 222499 | 254494 11 | 56:33.20 | 3:33.21 | 254495 | 270490
Range status and errors
Selected range
Filename C:\temp\Mozart - 45 Symphonies\CD09\Mozart - 45 Symphonies - CD09.wav
Peak level 98.3 % Extraction speed 5.3 X Range quality 100.0 % Test CRC 5C61F814 Copy CRC 5C61F814 Copy OK
No errors occurred
AccurateRip summary
Track 1 accurately ripped (confidence 5) [6F8790C3] (AR v2)Track 2 accurately ripped (confidence 5) [3081B8C3] (AR v2)Track 3 accurately ripped (confidence 5) [035E014D] (AR v2)Track 4 accurately ripped (confidence 5) [798A298B] (AR v2)Track 5 accurately ripped (confidence 5) [05FAE7E2] (AR v2)Track 6 accurately ripped (confidence 5) [FB252FDE] (AR v2)Track 7 accurately ripped (confidence 5) [4B183582] (AR v2)Track 8 accurately ripped (confidence 5) [C2174DEC] (AR v2)Track 9 accurately ripped (confidence 5) [FA3E8D69] (AR v2)Track 10 accurately ripped (confidence 5) [68B543A6] (AR v2)Track 11 accurately ripped (confidence 5) [DA145044] (AR v2)
All tracks accurately ripped
End of status report
==== Log checksum 667AFAF960FFAE5E76574C269F9F5F32C771AC41F81B04EE6FFF7AD79FEBCC5C ====

Лог создания рипа: CD10

Exact Audio Copy V1.0 beta 3 from 29. August 2011
EAC extraction logfile from 6. May 2015, 21:06
Danish National Chamber Orchestra, Adam Fischer / Mozart - 45 Symphonies - CD10
Used drive : HL-DT-STDVDRAM GU70N Adapter: 0 ID: 0
Read mode : SecureUtilize accurate stream : YesDefeat audio cache : YesMake use of C2 pointers : No
Read offset correction : 48Overread into Lead-In and Lead-Out : NoFill up missing offset samples with silence : YesDelete leading and trailing silent blocks : NoNull samples used in CRC calculations : YesUsed interface : Native Win32 interface for Win NT & 2000
Used output format : User Defined EncoderSelected bitrate : 128 kBit/sQuality : HighAdd ID3 tag : NoCommand line compressor : C:\Program Files (x86)\Exact Audio Copy\Flac\flac.exeAdditional command line options : -V -8 -T "Date=%year%" -T "Genre=%genre%" %source%
TOC of the extracted CD
Track | Start | Length | Start sector | End sector --------------------------------------------------------- 1 | 0:00.00 | 5:24.12 | 0 | 24311 2 | 5:24.12 | 6:08.56 | 24312 | 51967 3 | 11:32.68 | 2:51.66 | 51968 | 64858 4 | 14:24.59 | 3:48.61 | 64859 | 82019 5 | 18:13.45 | 17:16.26 | 82020 | 159745 6 | 35:29.71 | 10:19.70 | 159746 | 206240 7 | 45:49.66 | 7:15.73 | 206241 | 238938
Range status and errors
Selected range
Filename C:\temp\Mozart - 45 Symphonies\CD10\Mozart - 45 Symphonies - CD10.wav
Peak level 79.7 % Extraction speed 5.0 X Range quality 99.9 % Test CRC 3499982E Copy CRC 3499982E Copy OK
No errors occurred
AccurateRip summary
Track 1 accurately ripped (confidence 5) [8AFD02D0] (AR v2)Track 2 accurately ripped (confidence 5) [A9B2CBAE] (AR v2)Track 3 accurately ripped (confidence 5) [4EB8527F] (AR v2)Track 4 accurately ripped (confidence 5) [E99691B6] (AR v2)Track 5 accurately ripped (confidence 5) [6DDC35C8] (AR v2)Track 6 accurately ripped (confidence 5) [E6B57B08] (AR v2)Track 7 accurately ripped (confidence 5) [3BC65483] (AR v2)
All tracks accurately ripped
End of status report
==== Log checksum 167937E064F8D833EAB5A779511BB20718CDFD36E6DE575B13F9D45E33F28009 ====

Лог создания рипа: CD11

Exact Audio Copy V1.0 beta 3 from 29. August 2011
EAC extraction logfile from 6. May 2015, 21:40
Danish National Chamber Orchestra, Adam Fischer / Mozart - 45 Symphonies - CD11
Used drive : HL-DT-STDVDRAM GU70N Adapter: 0 ID: 0
Read mode : SecureUtilize accurate stream : YesDefeat audio cache : YesMake use of C2 pointers : No
Read offset correction : 48Overread into Lead-In and Lead-Out : NoFill up missing offset samples with silence : YesDelete leading and trailing silent blocks : NoNull samples used in CRC calculations : YesUsed interface : Native Win32 interface for Win NT & 2000
Used output format : User Defined EncoderSelected bitrate : 128 kBit/sQuality : HighAdd ID3 tag : NoCommand line compressor : C:\Program Files (x86)\Exact Audio Copy\Flac\flac.exeAdditional command line options : -V -8 -T "Date=%year%" -T "Genre=%genre%" %source%
TOC of the extracted CD
Track | Start | Length | Start sector | End sector --------------------------------------------------------- 1 | 0:00.00 | 10:05.17 | 0 | 45391 2 | 10:05.17 | 7:21.03 | 45392 | 78469 3 | 17:26.20 | 3:16.32 | 78470 | 93201 4 | 20:42.52 | 7:41.73 | 93202 | 127849 5 | 28:24.50 | 10:13.50 | 127850 | 173874 6 | 38:38.25 | 7:29.27 | 173875 | 207576 7 | 46:07.52 | 3:35.73 | 207577 | 223774 8 | 49:43.50 | 7:36.11 | 223775 | 257985
Range status and errors
Selected range
Filename C:\temp\Mozart - 45 Symphonies\CD11\Mozart - 45 Symphonies - CD11.wav
Peak level 99.5 % Extraction speed 5.2 X Range quality 100.0 % Test CRC AFAF0AE7 Copy CRC AFAF0AE7 Copy OK
No errors occurred
AccurateRip summary
Track 1 accurately ripped (confidence 6) [584D9466] (AR v2)Track 2 accurately ripped (confidence 6) [50F2001D] (AR v2)Track 3 accurately ripped (confidence 6) [8FEA8E4D] (AR v2)Track 4 accurately ripped (confidence 6) [7B1E14B2] (AR v2)Track 5 accurately ripped (confidence 6) [118BA9C2] (AR v2)Track 6 accurately ripped (confidence 6) [37B00B3F] (AR v2)Track 7 accurately ripped (confidence 6) [6A7559AF] (AR v2)Track 8 accurately ripped (confidence 6) [788A3352] (AR v2)
All tracks accurately ripped
End of status report
==== Log checksum 99E38860049B18CEC6CB41DDC58A43F1033306A06BBAC775B79EA2C9FF5BCFDD ====

Лог создания рипа: CD12

Exact Audio Copy V1.0 beta 3 from 29. August 2011
EAC extraction logfile from 7. May 2015, 1:03
Danish National Chamber Orchestra, Adam Fischer / Mozart - 45 Symphonies - CD12
Used drive : HL-DT-STDVDRAM GU70N Adapter: 0 ID: 0
Read mode : SecureUtilize accurate stream : YesDefeat audio cache : YesMake use of C2 pointers : No
Read offset correction : 48Overread into Lead-In and Lead-Out : NoFill up missing offset samples with silence : YesDelete leading and trailing silent blocks : NoNull samples used in CRC calculations : YesUsed interface : Native Win32 interface for Win NT & 2000
Used output format : User Defined EncoderSelected bitrate : 128 kBit/sQuality : HighAdd ID3 tag : NoCommand line compressor : C:\Program Files (x86)\Exact Audio Copy\Flac\flac.exeAdditional command line options : -V -8 -T "Date=%year%" -T "Genre=%genre%" %source%
TOC of the extracted CD
Track | Start | Length | Start sector | End sector --------------------------------------------------------- 1 | 0:00.00 | 7:11.53 | 0 | 32377 2 | 7:11.53 | 9:14.52 | 32378 | 73979 3 | 16:26.30 | 3:56.27 | 73980 | 91706 4 | 20:22.57 | 9:25.37 | 91707 | 134118 5 | 29:48.19 | 11:15.22 | 134119 | 184765 6 | 41:03.41 | 10:49.03 | 184766 | 233443 7 | 51:52.44 | 4:18.69 | 233444 | 252862 8 | 56:11.38 | 8:20.43 | 252863 | 290405
Range status and errors
Selected range
Filename C:\temp\Mozart - 45 Symphonies\CD12\Mozart - 45 Symphonies - CD12.wav
Peak level 89.2 % Extraction speed 2.2 X Range quality 99.9 % Test CRC DB148F21 Copy CRC DB148F21 Copy OK
No errors occurred
AccurateRip summary
Track 1 accurately ripped (confidence 7) [01060EE0] (AR v2)Track 2 accurately ripped (confidence 7) [B377708D] (AR v2)Track 3 accurately ripped (confidence 7) [4AC36B80] (AR v2)Track 4 accurately ripped (confidence 7) [600AD0F5] (AR v2)Track 5 accurately ripped (confidence 7) [75C47FBE] (AR v2)Track 6 accurately ripped (confidence 7) [DBDA04F9] (AR v2)Track 7 accurately ripped (confidence 7) [E10BD0A6] (AR v2)Track 8 accurately ripped (confidence 7) [0B3AE9DE] (AR v2)
All tracks accurately ripped
End of status report
==== Log checksum FBAACEE51ED4FFF6A65C967B11CC1332BD84EFBB7ECADB127CE9FDC010D786F5 ====



Показать сообщения:    

Текущее время: 08-Дек 09:06

Часовой пояс: UTC + 3


Вы не можете начинать темы
Вы не можете отвечать на сообщения
Вы не можете редактировать свои сообщения
Вы не можете удалять свои сообщения
Вы не можете голосовать в опросах
Вы не можете прикреплять файлы к сообщениям
Вы не можете скачивать файлы