(Classical, Orchestral) Ida Haendel plays Tchaikovsky & Dvorak Violin Concertos / Чайковский, Дворжак - Скрипичные концерты (Ida Haendel, violin, Radio-Sinfonieorchester Stuttgart, Hans Muller-Kray) - 2010, FLAC (image+.cue), lossless


 

[Цитировать]

Ida Haendel plays Tchaikovsky & Dvorak
Жанр: Classical, Orchestral
Страна-производитель диска: Germany
Год издания диска: 2010
Издатель (лейбл): Hahssler Classic
Номер по каталогу: 94.205
Дата записи: 1960 & 1965
Аудиокодек: FLAC
Тип рипа: image+.cue
Битрейт аудио: lossless
Продолжительность: 64.58
Источник: собственный рип
Наличие сканов в содержимом раздачи: да
Исполнители: Ida Haendel, violin, Radio-Sinfonieorchester Stuttgart, Hans Muller-Kray

Треклист:

Tchaikovsky: Violinkonzert В-Dur Op. 35
01. I. Allegro moderato
02. II. Canzonetta. Andante
03. III. Finale. Allegro vivacissimo
Dvorak: Violinkonzert a-Moll Op. 53
04. I. Allegro ma non troppo
05. II. Adagio ma non troppo
06. III. Finale. Allegro giocoso ma non troppo
Total 64.56

Лог создания рипа:

Exact Audio Copy V1.0 beta 3 from 29. August 2011
Отчёт EAC об извлечении, выполненном 29. мая 2015, 10:27
Ida Haendel / Ida Haendel plays Tchaikovsky & Dvorak
Дисковод: Optiarc DVD RW AD-7260S Adapter: 0 ID: 1
Режим чтения : ДостоверностьИспользование точного потока : ДаОтключение кэша аудио : ДаИспользование указателей C2 : Нет
Коррекция смещения при чтении : 48Способность читать области Lead-in и Lead-out : НетЗаполнение пропущенных сэмплов тишиной : ДаУдаление блоков с тишиной в начале и конце : НетПри вычислениях CRC использовались нулевые сэмплы : ДаИнтерфейс : Встроенный Win32-интерфейс для Win NT/2000
Выходной формат : Пользовательский кодировщикВыбранный битрейт : 896 kBit/sКачество : ВысокийДобавление ID3-тега : НетУтилита сжатия : C:\Program Files\FLAC Frontend\tools\flac.exeДополнительные параметры : -V -8 -T "Date=%year%" -T "Genre=%genre%" %source%
TOC извлечённого CD
Трек | Старт | Длительность | Начальный сектор | Конечный сектор --------------------------------------------------------------------- 1 | 0:00.00 | 17:48.13 | 0 | 80112 2 | 17:48.13 | 6:23.20 | 80113 | 108857 3 | 24:11.33 | 9:15.03 | 108858 | 150485 4 | 33:26.36 | 10:56.17 | 150486 | 199702 5 | 44:22.53 | 10:40.13 | 199703 | 247715 6 | 55:02.66 | 9:53.33 | 247716 | 292223
Характеристики диапазона извлечения и сообщения об ошибках
Выбранный диапазон
Имя файла D:\EAC\Мои раздачи\Ida Haendel plays Tchaikovsky & Dvorak\Ida Haendel - Ida Haendel plays Tchaikovsky & Dvorak.wav
Пиковый уровень 99.4 % Скорость извлечения 4.0 X Качество диапазона 100.0 % CRC теста 37BDBEE3 CRC копии 37BDBEE3 Копирование... OK
Ошибок не произошло
AccurateRip: сводка
Трек 1 отсутствует в базе данныхТрек 2 отсутствует в базе данныхТрек 3 отсутствует в базе данныхТрек 4 отсутствует в базе данныхТрек 5 отсутствует в базе данныхТрек 6 отсутствует в базе данных
Ни одного трека нет в базе AccurateRip
Конец отчёта
==== Контрольная сумма отчёта 1578D2C04AF2A8F63D3114A304146351BBF6F7DB3205D7F930C63B7951B98F7D ====



Показать сообщения:    

Текущее время: 10-Дек 04:13

Часовой пояс: UTC + 3


Вы не можете начинать темы
Вы не можете отвечать на сообщения
Вы не можете редактировать свои сообщения
Вы не можете удалять свои сообщения
Вы не можете голосовать в опросах
Вы не можете прикреплять файлы к сообщениям
Вы не можете скачивать файлы