(Classical, 20th century) Alexandre Tansman - Symphonies, Volume 2 (Nos.7-9) - Melbourne Symphony Orchestra, Oleg Caetani - 2007, FLAC (image+.cue) lossless


 

[Цитировать]

Alexandre Tansman - Symphonies, Volume 2 (Nos.7-9) - Melbourne Symphony Orchestra, Oleg Caetani
Жанр: Classical, 20th century
Страна-производитель диска: UK
Год издания диска: 2007
Издатель (лейбл): Chandos Records
Номер по каталогу: CHSA 5054
Дата записи: 2006
Аудиокодек: FLAC
Тип рипа: image+.cue
Битрейт аудио: lossless
Продолжительность: 64:37
Источник: собственный рип
Наличие сканов в содержимом раздачи: да
Треклист:
Alexandre Tansman (1897–1986)
Symphonies, Volume 2 – Symphonic Testaments
[1]-[4] Symphony No. 7 ‘Lyrique’ (1944)
[5]-[8] Musique pour orchestre (Symphony No. 8) (1948)
[9]-[12] Symphony No. 9 (1957– 58)
Исполнители:
Melbourne Symphony Orchestra
Oleg Caetani

Лог создания рипа

Exact Audio Copy V1.0 beta 3 from 29. August 2011
EAC extraction logfile from 20. May 2015, 21:43
Melbourne Symphony Orchestra, Oleg Caetani / Tansman - Symphonies, Vol.2
Used drive : HL-DT-STDVDRAM GU70N Adapter: 0 ID: 0
Read mode : SecureUtilize accurate stream : YesDefeat audio cache : YesMake use of C2 pointers : No
Read offset correction : 48Overread into Lead-In and Lead-Out : NoFill up missing offset samples with silence : YesDelete leading and trailing silent blocks : NoNull samples used in CRC calculations : YesUsed interface : Native Win32 interface for Win NT & 2000
Used output format : User Defined EncoderSelected bitrate : 128 kBit/sQuality : HighAdd ID3 tag : NoCommand line compressor : C:\Program Files (x86)\Exact Audio Copy\Flac\flac.exeAdditional command line options : -V -8 -T "Date=%year%" -T "Genre=%genre%" %source%
TOC of the extracted CD
Track | Start | Length | Start sector | End sector --------------------------------------------------------- 1 | 0:00.00 | 7:17.63 | 0 | 32837 2 | 7:17.63 | 4:04.60 | 32838 | 51197 3 | 11:22.48 | 4:33.10 | 51198 | 71682 4 | 15:55.58 | 5:09.15 | 71683 | 94872 5 | 21:04.73 | 6:10.00 | 94873 | 122622 6 | 27:14.73 | 5:30.65 | 122623 | 147437 7 | 32:45.63 | 6:03.20 | 147438 | 174682 8 | 38:49.08 | 4:10.10 | 174683 | 193442 9 | 42:59.18 | 5:31.65 | 193443 | 218332 10 | 48:31.08 | 5:22.00 | 218333 | 242482 11 | 53:53.08 | 4:49.00 | 242483 | 264157 12 | 58:42.08 | 5:53.67 | 264158 | 290699
Range status and errors
Selected range
Filename C:\temp\CHSA_05054 - Tansman - Symphonies, Vol.2\Tansman - Symphonies, Vol.2.wav
Peak level 91.6 % Extraction speed 2.2 X Range quality 100.0 % Test CRC 4DDA5FD6 Copy CRC 4DDA5FD6 Copy OK
No errors occurred
AccurateRip summary
Track 1 accurately ripped (confidence 2) [C111F81E] (AR v2)Track 2 accurately ripped (confidence 2) [25B33B51] (AR v2)Track 3 accurately ripped (confidence 2) [9D5047FC] (AR v2)Track 4 accurately ripped (confidence 2) [BE32BF19] (AR v2)Track 5 accurately ripped (confidence 2) [48BC1CAD] (AR v2)Track 6 accurately ripped (confidence 2) [63E12641] (AR v2)Track 7 accurately ripped (confidence 2) [5D744E31] (AR v2)Track 8 accurately ripped (confidence 2) [0A7A2269] (AR v2)Track 9 accurately ripped (confidence 2) [7171355F] (AR v2)Track 10 accurately ripped (confidence 2) [ED756E45] (AR v2)Track 11 accurately ripped (confidence 2) [775B2E02] (AR v2)Track 12 accurately ripped (confidence 2) [5024E2D6] (AR v2)
All tracks accurately ripped
End of status report
==== Log checksum C388F72EB4D49133AB216C5481CB1296C8199D0CB8DFEA1985CC0B55785D3A4B ====



Показать сообщения:    

Текущее время: 08-Дек 23:13

Часовой пояс: UTC + 3


Вы не можете начинать темы
Вы не можете отвечать на сообщения
Вы не можете редактировать свои сообщения
Вы не можете удалять свои сообщения
Вы не можете голосовать в опросах
Вы не можете прикреплять файлы к сообщениям
Вы не можете скачивать файлы