(Classical) VA - 50th Anniversary Commemoration - Richard Strauss, Shostakovich, Grieg, Rachmaninov, Khachaturian, Dvorak, Bizet, Verdi, Berlioz, Elgar, Wagner, Tchaikovsky... The Royal Philharmonic Orchestra (2CD) - 1993, FLAC (image+.cue) lossless


 

[Цитировать]

VA - 50th Anniversary Commemoration
Жанр: Classical
Страна-производитель диска: EEC
Год издания диска: 1993
Издатель (лейбл): Centurion Music Ltd.
Номер по каталогу: 204508-305
Аудиокодек: FLAC
Тип рипа: image+.cue
Битрейт аудио: lossless
Продолжительность: 02:26:07
Источник: собственный рип
Наличие сканов в содержимом раздачи: да
Треклист:
Fortissimo (CD1)
01. Richard Strauss / Also sprach Zarathustra Opus 30 (Einleitung) (1:58)
02. Shostakovich / Symphony No. 5 in D minor Opus 47 (Allegretto) (5:15)
03. Grieg / Piano Concerto in A minor Opus 16 (Allegro Molto Moderato) (13:45)
04. Rachmaninov / Symphony No. 2 in E minor Opus 27 (Allegro Molto) (10:03)
05. Khachaturian / Sabre Dance (2:20)
06. Dvorak / Slavonic Dance in G minor Opus 46 No. 8 (4:28)
07. Bizet / L.Arlesienne Suite No. 2 (Farandole) (3:40)
08. Verdi / Overture (The Force of Destiny) (7:35)
09. Berlioz / Overture Le Corsaire (8:11)
10. Elgar / Pomp and Circumstance March No. 4 in G Opus 39 (5:09)
11. Wagner / Ride of the Valkyries (5:43)
12. Tchaikovsky / 1812 Overture (Excerpt) (3:52)
Pianissimo (CD2)
01. Barber / Adagio for Strings (8:36)
02. Rodrigo / Concierto de Aranjuez (Adagio) (11:10)
03. Mozart / Piano Concerto No. 21 in C major K.467 (Andante) (7:08)
04. Gorecki / Symphony No. 3 Opus 36 (Adagio) (9:27)
05. Chopin / Piano Concerto No. 2 in F minor Opus 21 (Larghetto) (9:24)
06. Delibes / Flower Duet from Lakme (6:05)
07. Mascagni / Cavelleria rusticana Intermezzo (4:00)
08. Debussy / Clair de lune (5:44)
09. Mahler / Symphony No. 5 in C sharp minor (Adagietto) (12:33)

Исполнители:

The Royal Philharmonic Orchestra
President / Associate conductor: The Lord Menuhin OM KBE
Principal conductor: Yuri Temirkanov
Principal guest conductor: Sir Charles Mackerras
Associate conductor / composer: Sir Peter Maxwell Davies CBE
Associate conductors: Vernon Handley, Gennadi Rozhdestvensky
CD1
1) Conductor: Sir Charles Mackerras
2) Conductor: Sir Charles Mackerras
3) Conductor: James Judd
4) Conductor: Vernon Handley
5) Conductor: Yuri Simonov
6) Conductor: Douglas Bastock
7) Conductor: Jacques Delacote
8) Conductor: Andrea Licata
9) Conductor: Sir Alexander Gibson
10) Conductor: Yehudi Menuhin
11) Conductor: Vernon Handley
12) Conductor: Yuri Simonov
CD2
1) Conductor: Carl Davis
2) Conductor: Jacek Kaspszyk
3) Conductor: Jonathan Carney
4) Conductor: Yuri Simonov
5) Conductor: Gilbert Varga
6) Conductor: Carl Davis
7) Conductor: Andrea Licata
8) Conductor: Ronan O' Hara
9) Conductor: Frank Shipway

Лог создания рипаCD1

Exact Audio Copy V1.0 beta 3 from 29. August 2011
Отчёт EAC об извлечении, выполненном 26. мая 2015, 19:05
The Royal Philharmonic Orchestra / 50th Anniversary Commemoration
Дисковод: ASUS DRW-1814BL Adapter: 1 ID: 1
Режим чтения : ДостоверностьИспользование точного потока : ДаОтключение кэша аудио : ДаИспользование указателей C2 : Нет
Коррекция смещения при чтении : 6Способность читать области Lead-in и Lead-out : НетЗаполнение пропущенных сэмплов тишиной : ДаУдаление блоков с тишиной в начале и конце : НетПри вычислениях CRC использовались нулевые сэмплы : ДаИнтерфейс : Встроенный Win32-интерфейс для Win NT/2000
Выходной формат : Пользовательский кодировщикВыбранный битрейт : 128 kBit/sКачество : ВысокийДобавление ID3-тега : НетУтилита сжатия : C:\Program Files\Exact Audio Copy\Flac\flac.exeДополнительные параметры : -V -8 -T "Date=%year%" -T "Genre=%genre%" %source%
TOC извлечённого CD
Трек | Старт | Длительность | Начальный сектор | Конечный сектор --------------------------------------------------------------------- 1 | 0:00.00 | 1:57.45 | 0 | 8819 2 | 1:57.45 | 5:14.60 | 8820 | 32429 3 | 7:12.30 | 13:44.72 | 32430 | 94301 4 | 20:57.27 | 10:03.08 | 94302 | 139534 5 | 31:00.35 | 2:19.57 | 139535 | 150016 6 | 33:20.17 | 4:27.55 | 150017 | 170096 7 | 37:47.72 | 3:39.55 | 170097 | 186576 8 | 41:27.52 | 7:35.23 | 186577 | 220724 9 | 49:03.00 | 8:11.27 | 220725 | 257576 10 | 57:14.27 | 5:08.65 | 257577 | 280741 11 | 62:23.17 | 5:42.65 | 280742 | 306456 12 | 68:06.07 | 3:51.68 | 306457 | 323849
Характеристики диапазона извлечения и сообщения об ошибках
Выбранный диапазон
Имя файла C:\Documents and Settings\biotox\Рабочий стол\Новая папка\The Royal Philharmonic Orchestra - 50th Anniversary Commemoration.wav
Пиковый уровень 100.0 % Скорость извлечения 6.1 X Качество диапазона 99.9 % CRC теста 270FDB7C CRC копии 270FDB7C Копирование... OK
Ошибок не произошло
AccurateRip: сводка
Трек 1 : извлечено точно (доверие 3) [AC8785D8] (AR v2)Трек 2 : извлечено точно (доверие 3) [E156F1FD] (AR v2)Трек 3 : извлечено точно (доверие 3) [B77B09DA] (AR v2)Трек 4 : извлечено точно (доверие 3) [9FCACBDE] (AR v2)Трек 5 : извлечено точно (доверие 3) [8CA934BE] (AR v2)Трек 6 : извлечено точно (доверие 3) [D9ED153C] (AR v2)Трек 7 : извлечено точно (доверие 3) [081D09A1] (AR v2)Трек 8 : извлечено точно (доверие 3) [6244F29F] (AR v2)Трек 9 : извлечено точно (доверие 3) [D7109FBE] (AR v2)Трек 10 : извлечено точно (доверие 3) [3A1B6722] (AR v2)Трек 11 : извлечено точно (доверие 3) [4BB0E804] (AR v2)Трек 12 : извлечено точно (доверие 3) [41437E21] (AR v2)
Все треки извлечены точно
Конец отчёта
==== Контрольная сумма отчёта B3280729B42B21A374E9953606CB200B800290BB564FA8696AABDA8E2C8D6433 ====

CD2

Exact Audio Copy V1.0 beta 3 from 29. August 2011
Отчёт EAC об извлечении, выполненном 26. мая 2015, 22:02
The Royal Philharmonic Orchestra / 50th Anniversary Commemoration (CD2)
Дисковод: ASUS DRW-1814BL Adapter: 1 ID: 1
Режим чтения : ДостоверностьИспользование точного потока : ДаОтключение кэша аудио : ДаИспользование указателей C2 : Нет
Коррекция смещения при чтении : 6Способность читать области Lead-in и Lead-out : НетЗаполнение пропущенных сэмплов тишиной : ДаУдаление блоков с тишиной в начале и конце : НетПри вычислениях CRC использовались нулевые сэмплы : ДаИнтерфейс : Встроенный Win32-интерфейс для Win NT/2000
Выходной формат : Пользовательский кодировщикВыбранный битрейт : 128 kBit/sКачество : ВысокийДобавление ID3-тега : НетУтилита сжатия : C:\Program Files\Exact Audio Copy\Flac\flac.exeДополнительные параметры : -V -8 -T "Date=%year%" -T "Genre=%genre%" %source%
TOC извлечённого CD
Трек | Старт | Длительность | Начальный сектор | Конечный сектор --------------------------------------------------------------------- 1 | 0:00.00 | 8:35.45 | 0 | 38669 2 | 8:35.45 | 11:09.42 | 38670 | 88886 3 | 19:45.12 | 7:07.63 | 88887 | 120974 4 | 26:53.00 | 9:26.67 | 120975 | 163491 5 | 36:19.67 | 9:23.63 | 163492 | 205779 6 | 45:43.55 | 6:05.00 | 205780 | 233154 7 | 51:48.55 | 4:00.00 | 233155 | 251154 8 | 55:48.55 | 5:43.55 | 251155 | 276934 9 | 61:32.35 | 12:32.65 | 276935 | 333399
Характеристики диапазона извлечения и сообщения об ошибках
Выбранный диапазон
Имя файла C:\Documents and Settings\biotox\Рабочий стол\Новая папка\The Royal Philharmonic Orchestra - 50th Anniversary Commemoration (CD2).wav
Пиковый уровень 94.7 % Скорость извлечения 2.6 X Качество диапазона 99.8 % CRC теста CBB443B0 CRC копии CBB443B0 Копирование... OK
Ошибок не произошло
AccurateRip: сводка
Трек 1 : извлечено точно (доверие 3) [0005A94F] (AR v2)Трек 2 : извлечено точно (доверие 3) [4BCFA0A1] (AR v2)Трек 3 : извлечено точно (доверие 3) [9AC70335] (AR v2)Трек 4 : извлечено точно (доверие 3) [AD595787] (AR v2)Трек 5 : извлечено точно (доверие 3) [4EB5BF9D] (AR v2)Трек 6 : извлечено точно (доверие 3) [A9CBEE5A] (AR v2)Трек 7 : извлечено точно (доверие 3) [32D6996D] (AR v2)Трек 8 : извлечено точно (доверие 3) [806A034A] (AR v2)Трек 9 : извлечено точно (доверие 3) [04A39362] (AR v2)
Все треки извлечены точно
Конец отчёта
==== Контрольная сумма отчёта 6F37CD56A832C18F66BFF12FE8D3E6824F6040DDBF9D3E824E5A793B6E437F4A ====

Замер динамического диапазонаCD1

foobar2000 1.2.9 / Замер динамического диапазона (DR) 1.1.1Дата отчёта: 2015-05-26 19:11:19
--------------------------------------------------------------------------------Анализ: The Royal Philharmonic Orchestra / 50th Anniversary Commemoration--------------------------------------------------------------------------------
DR Пики RMS Продолжительность трека--------------------------------------------------------------------------------DR9 -0.30 дБ -13.55 дБ 1:58 01-Richard Strauss / Also sprach Zarathustra Opus 30 (Einleitung)DR13 -0.69 дБ -19.17 дБ 5:15 02-Shostakovich / Symphony No. 5 in D minor Opus 47 (Allegretto)DR14 -0.12 дБ -19.68 дБ 13:45 03-Grieg / Piano Concerto in A minor Opus 16 (Allegro Molto Moderato)DR15 -0.04 дБ -21.16 дБ 10:03 04-Rachmaninov / Symphony No. 2 in E minor Opus 27 (Allegro Molto)DR8 -0.42 дБ -12.25 дБ 2:20 05-Khachaturian / Sabre DanceDR11 -0.37 дБ -16.51 дБ 4:28 06-Dvorak / Slavonic Dance in G minor Opus 46 No. 8DR12 -0.21 дБ -16.94 дБ 3:40 07-Bizet / L.Arlesienne Suite No. 2 (Farandole)DR13 -0.64 дБ -18.85 дБ 7:35 08-Verdi / Overture (The Force of Destiny)DR11 -0.41 дБ -17.58 дБ 8:11 09-Berlioz / Overture Le CorsaireDR10 0.00 дБ -13.55 дБ 5:09 10-Elgar / Pomp and Circumstance March No. 4 in G Opus 39DR10 -0.39 дБ -14.36 дБ 5:43 11-Wagner / Ride of the ValkyriesDR11 -0.21 дБ -14.54 дБ 3:52 12-Tchaikovsky / 1812 Overture (Excerpt)--------------------------------------------------------------------------------
Количество треков: 12Реальные значения DR: DR11
Частота: 44100 ГцКаналов: 2Разрядность: 16Битрейт: 646 кбит/сКодек: FLAC================================================================================

CD2

foobar2000 1.2.9 / Замер динамического диапазона (DR) 1.1.1Дата отчёта: 2015-05-26 22:10:29
--------------------------------------------------------------------------------Анализ: The Royal Philharmonic Orchestra / 50th Anniversary Commemoration (CD2)--------------------------------------------------------------------------------
DR Пики RMS Продолжительность трека--------------------------------------------------------------------------------DR15 -7.99 дБ -28.95 дБ 8:36 01-Barber / Adagio for StringsDR13 -0.84 дБ -21.27 дБ 11:10 02-Rodrigo / Concierto de Aranjuez (Adagio)DR12 -6.37 дБ -24.34 дБ 7:08 03-Mozart / Piano Concerto No. 21 in C major K.467 (Andante)DR14 -3.07 дБ -23.37 дБ 9:27 04-Gorecki / Symphony No. 3 Opus 36 (Adagio)DR15 -5.06 дБ -25.29 дБ 9:24 05-Chopin / Piano Concerto No. 2 in F minor Opus 21 (Larghetto)DR16 -0.47 дБ -22.70 дБ 6:05 06-Delibes / Flower Duet from LakmeDR11 -9.41 дБ -27.76 дБ 4:00 07-Mascagni / Cavelleria rusticana IntermezzoDR15 -5.94 дБ -28.33 дБ 5:44 08-Debussy / Clair de luneDR13 -3.34 дБ -24.77 дБ 12:33 09-Mahler / Symphony No. 5 in C sharp minor (Adagietto)--------------------------------------------------------------------------------
Количество треков: 9Реальные значения DR: DR14
Частота: 44100 ГцКаналов: 2Разрядность: 16Битрейт: 488 кбит/сКодек: FLAC================================================================================



Показать сообщения:    

Текущее время: 10-Дек 00:19

Часовой пояс: UTC + 3


Вы не можете начинать темы
Вы не можете отвечать на сообщения
Вы не можете редактировать свои сообщения
Вы не можете удалять свои сообщения
Вы не можете голосовать в опросах
Вы не можете прикреплять файлы к сообщениям
Вы не можете скачивать файлы