(Classical, 20th century) Alexandre Tansman - Symphonies, Volume 1 (Nos.4-6) - Melbourne Chorale, Melbourne Symphony Orchestra, Oleg Caetani - 2006, FLAC (image+.cue) lossless


 

[Цитировать]

Alexandre Tansman - Symphonies, Volume 1 (Nos.4-6) - Melbourne Chorale, Melbourne Symphony Orchestra, Oleg Caetani
Жанр: Classical, 20th century
Страна-производитель диска: UK
Год издания диска: 2006
Издатель (лейбл): Chandos Records
Номер по каталогу: CHSA 5041
Дата записи: 2005
Аудиокодек: FLAC
Тип рипа: image+.cue
Битрейт аудио: lossless
Продолжительность: 68:17
Источник: собственный рип
Наличие сканов в содержимом раздачи: да
Треклист:
Alexandre Tansman (1897–1986)
Symphonies, Volume 1–The War Years
[1]-[3] Symphony No. 4 in C sharp minor (1936–39)
[4]-[7] Symphony No. 5 in D major (1942)
[8]-[11] Symphony No. 6 ‘In Memoriam’ (1944)
with Chorus
Melbourne Chorale
Исполнители:
Melbourne Symphony Orchestra
Oleg Caetani

Лог создания рипа

Exact Audio Copy V1.0 beta 3 from 29. August 2011
EAC extraction logfile from 20. May 2015, 1:43
Melbourne Symphony Orchestra, Oleg Caetani / Tansman - Symphonies, Vol.1
Used drive : HL-DT-STDVDRAM GU70N Adapter: 0 ID: 0
Read mode : SecureUtilize accurate stream : YesDefeat audio cache : YesMake use of C2 pointers : No
Read offset correction : 48Overread into Lead-In and Lead-Out : NoFill up missing offset samples with silence : YesDelete leading and trailing silent blocks : NoNull samples used in CRC calculations : YesUsed interface : Native Win32 interface for Win NT & 2000
Used output format : User Defined EncoderSelected bitrate : 128 kBit/sQuality : HighAdd ID3 tag : NoCommand line compressor : C:\Program Files (x86)\Exact Audio Copy\Flac\flac.exeAdditional command line options : -V -8 -T "Date=%year%" -T "Genre=%genre%" %source%
TOC of the extracted CD
Track | Start | Length | Start sector | End sector --------------------------------------------------------- 1 | 0:00.00 | 8:32.38 | 0 | 38437 2 | 8:32.38 | 5:05.25 | 38438 | 61337 3 | 13:37.63 | 7:45.50 | 61338 | 96262 4 | 21:23.38 | 6:55.25 | 96263 | 127412 5 | 28:18.63 | 5:34.00 | 127413 | 152462 6 | 33:52.63 | 5:46.00 | 152463 | 178412 7 | 39:38.63 | 8:20.50 | 178413 | 215962 8 | 47:59.38 | 6:46.50 | 215963 | 246462 9 | 54:46.13 | 3:08.00 | 246463 | 260562 10 | 57:54.13 | 3:56.00 | 260563 | 278262 11 | 61:50.13 | 6:26.62 | 278263 | 307274
Range status and errors
Selected range
Filename C:\temp\CHSA_05041 - Tansman - Symphonies, Vol.1\Tansman - Symphonies, Vol.1.wav
Peak level 98.2 % Extraction speed 2.3 X Range quality 100.0 % Test CRC EC43E928 Copy CRC EC43E928 Copy OK
No errors occurred
AccurateRip summary
Track 1 accurately ripped (confidence 3) [322185FD] (AR v1)Track 2 accurately ripped (confidence 3) [A6A3002C] (AR v1)Track 3 accurately ripped (confidence 3) [D1F4064F] (AR v1)Track 4 accurately ripped (confidence 3) [F1B4617A] (AR v1)Track 5 accurately ripped (confidence 3) [4599806C] (AR v1)Track 6 accurately ripped (confidence 3) [28FB52F8] (AR v1)Track 7 accurately ripped (confidence 3) [ACA5CCA0] (AR v1)Track 8 accurately ripped (confidence 3) [2CF002A5] (AR v1)Track 9 accurately ripped (confidence 3) [35764E1C] (AR v1)Track 10 accurately ripped (confidence 3) [46257168] (AR v1)Track 11 accurately ripped (confidence 3) [7FDECF11] (AR v1)
All tracks accurately ripped
End of status report
==== Log checksum AC7924DE58B5C77976E128D525A693DE5E085297653E8A125983F7AF2B54295C ====



Показать сообщения:    

Текущее время: 08-Дек 07:01

Часовой пояс: UTC + 3


Вы не можете начинать темы
Вы не можете отвечать на сообщения
Вы не можете редактировать свои сообщения
Вы не можете удалять свои сообщения
Вы не можете голосовать в опросах
Вы не можете прикреплять файлы к сообщениям
Вы не можете скачивать файлы