(Orchestral) Gustav Mahler - Symphonie Nr.7 (Wiener Staatsopernorchester - H.Scherchen) - 1996, FLAC (image+.cue) lossless


 

[Цитировать]

Mahler
Symphony No.7

Wiener Staatsopernorchester
Hermann Scherchen
-
-
- Жанр: Orchestral
Страна-производитель диска: Canada
Год издания диска: 1996
Издатель (лейбл): Millenium (Universal)
Дата записи: 07.1953
Аудиокодек: FLAC
Тип рипа: image+.cue
Битрейт аудио: lossless
Продолжительность: 78'00''
Источник: собственный рип
Наличие сканов в содержимом раздачи: да
Треклист:
G.Mahler - Symphonie Nr.7:
[01] Langsam (Adagio) - Allegro risoluto, ma non troppo
[02] Nachtmusik I. Allegro moderato
[03] Scherzo. Schattenhaft - Trio
[04] Nachtmusik II. Andante amoroso
[05] Rondo-Finale. Tempo I (Allegro ordinario)
Исполнители:
Wiener Staatsopernorchester
Hermann Scherchen
-

Лог создания рипа

Exact Audio Copy V1.0 beta 3 from 29. August 2011
EAC extraction logfile from 6. May 2014, 23:26
Wiener Staatsopernorchester - Hermann Scherchen / Mahler - Symphony No. 7
Used drive : TSSTcorpCDDVDW SN-208BB Adapter: 0 ID: 1
Read mode : SecureUtilize accurate stream : YesDefeat audio cache : YesMake use of C2 pointers : No
Read offset correction : 6Overread into Lead-In and Lead-Out : NoFill up missing offset samples with silence : YesDelete leading and trailing silent blocks : NoNull samples used in CRC calculations : YesUsed interface : Native Win32 interface for Win NT & 2000
Used output format : User Defined EncoderSelected bitrate : 896 kBit/sQuality : HighAdd ID3 tag : NoCommand line compressor : C:\Program Files (x86)\FLAC\flac.exeAdditional command line options : -T "COMMENT=rip by el coronel" -8 -V %source%
TOC of the extracted CD
Track | Start | Length | Start sector | End sector --------------------------------------------------------- 1 | 0:00.00 | 20:42.47 | 0 | 93196 2 | 20:42.47 | 15:40.45 | 93197 | 163741 3 | 36:23.17 | 9:10.18 | 163742 | 205009 4 | 45:33.35 | 14:26.45 | 205010 | 270004 5 | 60:00.05 | 17:59.37 | 270005 | 350966
Range status and errors
Selected range
Filename D:\Mahler - Symphony No. 7 (WSOO - Scherchen).wav
Peak level 98.0 % Extraction speed 3.4 X Range quality 99.9 % Copy CRC 737CF5F5 Copy OK
No errors occurred
AccurateRip summary
Track 1 accurately ripped (confidence 5) [89741D04] (AR v2)Track 2 accurately ripped (confidence 5) [E948E6EB] (AR v2)Track 3 accurately ripped (confidence 5) [238E8298] (AR v2)Track 4 accurately ripped (confidence 5) [5C7E4A54] (AR v2)Track 5 cannot be verified as accurate (confidence 3) [A74AA295], AccurateRip returned [084014B3] (AR v2)
4 трек(и) скопированы точно 1 трек(и) не удалось проверить на точность
Some tracks could not be verified as accurate
End of status report
==== Log checksum FC184E86DA783F2C8B338B30D73D27CBBBA128C415B08C6ED1B78BA95A887F14 ====

Содержание индексной карты (.CUE)

REM GENRE ClassicalREM DATE 1996REM DISCID 39124705REM COMMENT "ExactAudioCopy v1.0b3"PERFORMER "Wiener Staatsopernorchester - Hermann Scherchen"TITLE "Mahler - Symphony No. 7"FILE "Mahler - Symphony No. 7 (WSOO - Scherchen).flac" WAVE TRACK 01 AUDIO TITLE "Langsam (Adagio) - Allegro risoluto, ma non troppo" PERFORMER "Wiener Staatsopernorchester - Hermann Scherchen" INDEX 01 00:00:00 TRACK 02 AUDIO TITLE "Nachtmusik I. Allegro moderato" PERFORMER "Wiener Staatsopernorchester - Hermann Scherchen" INDEX 01 20:42:47 TRACK 03 AUDIO TITLE "Scherzo. Schattenhaft - Trio" PERFORMER "Wiener Staatsopernorchester - Hermann Scherchen" INDEX 01 36:23:17 TRACK 04 AUDIO TITLE "Nachtmusik II. Andante amoroso" PERFORMER "Wiener Staatsopernorchester - Hermann Scherchen" INDEX 01 45:33:35 TRACK 05 AUDIO TITLE "Rondo-Finale. Tempo I (Allegro ordinario)" PERFORMER "Wiener Staatsopernorchester - Hermann Scherchen" INDEX 01 60:00:05
-



Показать сообщения:    

Текущее время: 06-Дек 13:12

Часовой пояс: UTC + 3


Вы не можете начинать темы
Вы не можете отвечать на сообщения
Вы не можете редактировать свои сообщения
Вы не можете удалять свои сообщения
Вы не можете голосовать в опросах
Вы не можете прикреплять файлы к сообщениям
Вы не можете скачивать файлы