(Orchestral) Gustav Mahler - Symphonie Nr.2 (M.Coertse • L.West • Wiener Staatsopernorchester - H.Scherchen) - 1997, FLAC (image+.cue) lossless


 

[Цитировать]

Mahler
Symphony No.2 Resurrection

Mimi Coertse • Lucretia West
Hermann Scherchen
-
-
- Жанр: Orchestral
Страна-производитель диска: Canada
Год издания диска: 1997
Издатель (лейбл): Millenium (Universal)
Дата записи: 06.1958
Аудиокодек: FLAC
Тип рипа: image+.cue
Битрейт аудио: lossless
Продолжительность: 1:34'15''
Источник: собственный рип
Наличие сканов в содержимом раздачи: да
Треклист:

CD1

[01] I. Allegro Maestoso
[02] II. Andante Moderato
[03] III. Scherzo. In ruhig fliessender Bewegung

Лог создания рипа

Exact Audio Copy V1.0 beta 3 from 29. August 2011
EAC extraction logfile from 22. May 2014, 16:08
Wiener Staatsopernorchester - Hermann Scherchen / Mahler - Symphony No.2 (CD1)
Used drive : PHILIPS CDRW1610A Adapter: 0 ID: 0
Read mode : SecureUtilize accurate stream : YesDefeat audio cache : YesMake use of C2 pointers : No
Read offset correction : 733Overread into Lead-In and Lead-Out : NoFill up missing offset samples with silence : YesDelete leading and trailing silent blocks : NoNull samples used in CRC calculations : YesUsed interface : Native Win32 interface for Win NT & 2000
Used output format : User Defined EncoderSelected bitrate : 1024 kBit/sQuality : HighAdd ID3 tag : NoCommand line compressor : C:\Program Files\FLAC\flac.exeAdditional command line options : -T"COMMENT=rip by el coronel" -8 -V %source%
TOC of the extracted CD
Track | Start | Length | Start sector | End sector --------------------------------------------------------- 1 | 0:00.00 | 25:07.70 | 0 | 113094 2 | 25:07.70 | 11:57.45 | 113095 | 166914 3 | 37:05.40 | 12:31.10 | 166915 | 223249
Range status and errors
Selected range
Filename D:\Mahler - Symphony No.2 (CD1).wav
Peak level 98.0 % Extraction speed 7.8 X Range quality 100.0 % Test CRC 4197852F Copy CRC 4197852F Copy OK
No errors occurred
End of status report
==== Log checksum C617EC78ADD13AAFAC38BCEF886D33DFA5F8435A084AFC9764E764AFDA44133F ====

Содержание индексной карты (.CUE)

REM GENRE ClassicalREM DATE 1997REM DISCID 1E0BA003REM COMMENT "ExactAudioCopy v1.0b3"PERFORMER "Wiener Staatsopernorchester - Hermann Scherchen"TITLE "Mahler - Symphony No.2 (CD1)"FILE "Mahler - Symphony No.2 (CD1).flac" WAVE TRACK 01 AUDIO TITLE "I. Allegro Maestoso" PERFORMER "Wiener Staatsopernorchester - Hermann Scherchen" INDEX 01 00:00:00 TRACK 02 AUDIO TITLE "II. Andante Moderato" PERFORMER "Wiener Staatsopernorchester - Hermann Scherchen" INDEX 01 25:07:70 TRACK 03 AUDIO TITLE "III. Scherzo. In ruhig fliessender Bewegung" PERFORMER "Wiener Staatsopernorchester - Hermann Scherchen" INDEX 01 37:05:40

CD2

[01] IV. Urlicht
[02] V. Im Tempo des Scherzo

Лог создания рипа

Exact Audio Copy V1.0 beta 3 from 29. August 2011
EAC extraction logfile from 22. May 2014, 16:31
Wiener Staatsopernorchester - Hermann Scherchen / Mahler - Symphony No.2 (CD2)
Used drive : PHILIPS CDRW1610A Adapter: 0 ID: 0
Read mode : SecureUtilize accurate stream : YesDefeat audio cache : YesMake use of C2 pointers : No
Read offset correction : 733Overread into Lead-In and Lead-Out : NoFill up missing offset samples with silence : YesDelete leading and trailing silent blocks : NoNull samples used in CRC calculations : YesUsed interface : Native Win32 interface for Win NT & 2000
Used output format : User Defined EncoderSelected bitrate : 1024 kBit/sQuality : HighAdd ID3 tag : NoCommand line compressor : C:\Program Files\FLAC\flac.exeAdditional command line options : -T"COMMENT=rip by el coronel" -8 -V %source%
TOC of the extracted CD
Track | Start | Length | Start sector | End sector --------------------------------------------------------- 1 | 0:00.00 | 6:52.62 | 0 | 30961 2 | 6:52.62 | 37:45.10 | 30962 | 200846
Range status and errors
Selected range
Filename D:\Mahler - Symphony No.2 (CD2).wav
Peak level 98.0 % Extraction speed 4.2 X Range quality 99.9 % Test CRC C812F6E4 Copy CRC C812F6E4 Copy OK
No errors occurred
End of status report
==== Log checksum B0AC32A7274E01C5BA87D86A8F3312DCD5D613974A5EF6043FEE16DD45AB8FBD ====

Содержание индексной карты (.CUE)

REM GENRE ClassicalREM DATE 1997REM DISCID 0B0A7502REM COMMENT "ExactAudioCopy v1.0b3"PERFORMER "Wiener Staatsopernorchester - Hermann Scherchen"TITLE "Mahler - Symphony No.2 (CD2)"FILE "Mahler - Symphony No.2 (CD2).flac" WAVE TRACK 01 AUDIO TITLE "IV. Urlicht" PERFORMER "Wiener Staatsopernorchester - Hermann Scherchen" INDEX 01 00:00:00 TRACK 02 AUDIO TITLE "V. Im Tempo des Scherzo" PERFORMER "Wiener Staatsopernorchester - Hermann Scherchen" INDEX 01 06:52:62
Исполнители:
Mimi Coertse, soprano
Lucretia West, contralto
Wiener Akademische Kammerchor
Wiener Staatsopernorchester
Hermann Scherchen



Показать сообщения:    

Текущее время: 06-Дек 11:14

Часовой пояс: UTC + 3


Вы не можете начинать темы
Вы не можете отвечать на сообщения
Вы не можете редактировать свои сообщения
Вы не можете удалять свои сообщения
Вы не можете голосовать в опросах
Вы не можете прикреплять файлы к сообщениям
Вы не можете скачивать файлы