(Classical) LSO Live 2000-2010 (Verdi • Mahler • Handel • Smetana • Mozart • Dvorak • Elgar • Berlioz • Beethoven • Holst - London Symphony Orchestra, Davis / Haitink / Gergiev [Валерий Гергиев]) - 2010, APE (image+.cue) lossless


 

[Цитировать]

LSO Live 2000-2010
Жанр: Classical
Страна-производитель диска: UK
Год издания диска: 2010
Издатель (лейбл): Note
Номер по каталогу: L505034
Дата записи: 2010
Аудиокодек: APE
Тип рипа: image+.cue
Битрейт аудио: lossless
Продолжительность: 74'35
Источник: собственный рип
Наличие сканов в содержимом раздачи: да
Треклист:
1. Verdi - Otello: Una Vela
2. Mahler - Symphony 7: Rondo
3. Handel - Messiah: For unto us a child is born
4. Smetana - ma vlast: vitava
5. Mozart - Requiem: Lacrimosa
6. Dvorak - Symphony 6: Scherzo
7. Elgar - Symphony 2: Larghetto
8. Berlioz - Symphony Fantastique: sabbat
9. Beethoven - Symphony 4: Allegro ma non troppo
10. Prokofiev - Romeo & Juliet: The people continue to make merry
11. Prokofiev - Romeo & Juliet: Tybalt and Mercutio Fight
12. Berlioz - L'enfance du christ: The shepherds farewell
13. Berlioz - Les Troyens: tout n'est que paix et charme
14. Mahler - Symphony 6: Finale
15. Brahms - Double Concerto: Vivace
16. Beethoven - Symphony 6: lustiges beisammensein
17. Elgar - Enigma Variations: Nimrod
18. Beethoven - Fidelio: O welche lust
19. Mahler - symphony 8: Part II, Poco Adagio
20. Holst - The Planets: Jupiter
Исполнители:
London Symphony Orchestra
Sir Colin Davis
Bernard Haitink
Valery Gergiev

Лог создания рипа

Exact Audio Copy V1.0 beta 3 from 29. August 2011
EAC extraction logfile from 8. May 2015, 11:29
LSO Live / 200-2010 Davis, Gergiev, Haitink
Used drive : TSSTcorpCDDVDW SE-208AB Adapter: 1 ID: 0
Read mode : SecureUtilize accurate stream : YesDefeat audio cache : YesMake use of C2 pointers : No
Read offset correction : 6Overread into Lead-In and Lead-Out : NoFill up missing offset samples with silence : YesDelete leading and trailing silent blocks : NoNull samples used in CRC calculations : YesUsed interface : Native Win32 interface for Win NT & 2000
Used output format : Monkey's Audio Lossless EncoderSelected bitrate : High Lossless CompressionQuality : HighAdd ID3 tag : YesCommand line compressor : C:\Program Files (x86)\Exact Audio Copy\MAC\MAC.exe
TOC of the extracted CD
Track | Start | Length | Start sector | End sector --------------------------------------------------------- 1 | 0:00.00 | 6:20.37 | 0 | 28536 2 | 6:20.37 | 3:52.37 | 28537 | 45973 3 | 10:12.74 | 4:08.42 | 45974 | 64615 4 | 14:21.41 | 4:01.58 | 64616 | 82748 5 | 18:23.24 | 3:00.40 | 82749 | 96288 6 | 21:23.64 | 3:18.56 | 96289 | 111194 7 | 24:42.45 | 3:24.57 | 111195 | 126551 8 | 28:07.27 | 3:24.61 | 126552 | 141912 9 | 31:32.13 | 2:52.16 | 141913 | 154828 10 | 34:24.29 | 3:20.48 | 154829 | 169876 11 | 37:45.02 | 1:27.14 | 169877 | 176415 12 | 39:12.16 | 4:36.29 | 176416 | 197144 13 | 43:48.45 | 4:29.31 | 197145 | 217350 14 | 48:18.01 | 2:37.44 | 217351 | 229169 15 | 50:55.45 | 3:37.21 | 229170 | 245465 16 | 54:32.66 | 2:15.57 | 245466 | 255647 17 | 56:48.48 | 4:25.44 | 255648 | 275566 18 | 61:14.17 | 3:41.15 | 275567 | 292156 19 | 64:55.32 | 4:54.15 | 292157 | 314221 20 | 69:49.47 | 4:49.42 | 314222 | 335938
Range status and errors
Selected range
Filename D:\EAC\LSO Live - 200-2010 Davis, Gergiev, Haitink.wav
Peak level 100.0 % Extraction speed 5.2 X Range quality 100.0 % Test CRC 377B6D39 Copy CRC 377B6D39 Copy OK
No errors occurred
AccurateRip summary
Track 1 accurately ripped (confidence 7) [5C58D1B1] (AR v2)Track 2 accurately ripped (confidence 7) [C0614E32] (AR v2)Track 3 accurately ripped (confidence 7) [E00BFC85] (AR v2)Track 4 accurately ripped (confidence 7) [13E6589A] (AR v2)Track 5 accurately ripped (confidence 7) [5AE8107B] (AR v2)Track 6 accurately ripped (confidence 7) [DA8EB9F2] (AR v2)Track 7 accurately ripped (confidence 7) [9E56D0E4] (AR v2)Track 8 accurately ripped (confidence 7) [59535266] (AR v2)Track 9 accurately ripped (confidence 7) [EE7815B6] (AR v2)Track 10 accurately ripped (confidence 7) [64B08D7A] (AR v2)Track 11 accurately ripped (confidence 7) [E9B72B7D] (AR v2)Track 12 accurately ripped (confidence 7) [0A9AFE8B] (AR v2)Track 13 accurately ripped (confidence 7) [0C526B89] (AR v2)Track 14 accurately ripped (confidence 7) [361AB764] (AR v2)Track 15 accurately ripped (confidence 7) [F922BB80] (AR v2)Track 16 accurately ripped (confidence 7) [42602D09] (AR v2)Track 17 accurately ripped (confidence 7) [2E13BD46] (AR v2)Track 18 accurately ripped (confidence 7) [1D01B261] (AR v2)Track 19 accurately ripped (confidence 7) [4EFECFFF] (AR v2)Track 20 accurately ripped (confidence 7) [C157A9EA] (AR v2)
All tracks accurately ripped
End of status report
---- CUETools DB Plugin V2.1.3
[CTDB TOCID: Mb5s7nfq8LEZA.RRB4FeNgIqYYA-] found, Submit result: Mb5s7nfq8LEZA.RRB4FeNgIqYYA- has been confirmed[17b7d73b] (1/1) Accurately ripped
==== Log checksum 3AECFF655BFBAEB4A2EF06DDFE7E06114B213F21DD9E4C900C4F6B88836978E8 ====

Содержание индексной карты (.CUE)

REM GENRE ClassicalREM DATE 2010REM DISCID 2C117F14REM COMMENT "ExactAudioCopy v1.0b3"PERFORMER "LSO Live"TITLE "200-2010 Davis, Gergiev, Haitink"FILE "LSO Live - 200-2010 Davis, Gergiev, Haitink.ape" WAVE TRACK 01 AUDIO TITLE "Verdi Otello Una Vela" PERFORMER "LSO Live" ISRC GBDGQ0920001 INDEX 01 00:00:00 TRACK 02 AUDIO TITLE "Mahler Sym 7 Rondo" PERFORMER "LSO Live" ISRC GBDGQ0816505 INDEX 01 06:20:37 TRACK 03 AUDIO TITLE "Handel Messiah For unto us a child is born" PERFORMER "LSO Live" ISRC GBDGQ0610713 INDEX 01 10:12:74 TRACK 04 AUDIO TITLE "Smetana ma vlast vitava" PERFORMER "LSO Live" ISRC GBDGQ0506102 INDEX 01 14:21:41 TRACK 05 AUDIO TITLE "Mozart Requiem Lacrimosa" PERFORMER "LSO Live" ISRC GBDGQ0712707 INDEX 01 18:23:24 TRACK 06 AUDIO TITLE "Dvorak Sym 6 Scherzo" PERFORMER "LSO Live" ISRC GBDGQ0405903 INDEX 01 21:23:64 TRACK 07 AUDIO TITLE "Elgar Sym 2 Larghetto" PERFORMER "LSO Live" ISRC GBDGQ0101802 INDEX 01 24:42:45 TRACK 08 AUDIO TITLE "Berlioz Sym Fantastique sabbat" PERFORMER "LSO Live" ISRC GBDGQ0101802 INDEX 01 28:07:27 TRACK 09 AUDIO TITLE "Beethoven Sym 4 Allegro ma non troppo" PERFORMER "LSO Live" ISRC GBDGQ0608704 INDEX 01 31:32:13 TRACK 10 AUDIO TITLE "Prokofiev Romeo&Juliet The ppl continueto makemerry" PERFORMER "LSO Live" ISRC GBDGQ0818230 INDEX 01 34:24:29 TRACK 11 AUDIO TITLE "Prokofiev Romeo&Juliet Tybalt and Mercutio Fight" PERFORMER "LSO Live" ISRC GBDGQ0818233 INDEX 01 37:45:02 TRACK 12 AUDIO TITLE "Berlioz L'enfance du christ: shepherds farewall" PERFORMER "LSO Live" ISRC GBDGQ0610611 INDEX 01 39:12:16 TRACK 13 AUDIO TITLE "Berlioz Tryoens :tout n'est que paix et charme" PERFORMER "LSO Live" ISRC GBDGQ0001049 INDEX 01 43:48:45 TRACK 14 AUDIO TITLE "Mahler Sym 6 Finale" PERFORMER "LSO Live" ISRC GBDGQ0716104 INDEX 01 48:18:01 TRACK 15 AUDIO TITLE "Brahms Double Concerto Vivace" PERFORMER "LSO Live" ISRC GBDGQ0304203 INDEX 01 50:55:45 TRACK 16 AUDIO TITLE "Beethoven Sym 6 lustiges beisammensein" PERFORMER "LSO Live" ISRC GBDGQ0508203 INDEX 01 54:32:66 TRACK 17 AUDIO TITLE "Elgar Enigma Variations: Nimrod" PERFORMER "LSO Live" ISRC GBDGQ0592709 INDEX 01 56:48:48 TRACK 18 AUDIO TITLE "Beethoven Fidelio O welche lust" PERFORMER "LSO Live" ISRC GBDGQ0609318 INDEX 01 61:14:17 TRACK 19 AUDIO TITLE "Mahler sym 8 Part II Poco Adagio" PERFORMER "LSO Live" ISRC GBDGQ0816907 INDEX 00 64:53:32 INDEX 01 64:55:32 TRACK 20 AUDIO TITLE "Holst The Planets Jupiter" PERFORMER "LSO Live" ISRC GBDGQ0202904 INDEX 00 69:47:47 INDEX 01 69:49:47



Показать сообщения:    

Текущее время: 03-Дек 16:47

Часовой пояс: UTC + 3


Вы не можете начинать темы
Вы не можете отвечать на сообщения
Вы не можете редактировать свои сообщения
Вы не можете удалять свои сообщения
Вы не можете голосовать в опросах
Вы не можете прикреплять файлы к сообщениям
Вы не можете скачивать файлы