(Orchestral Music) Widor - Symphony for organ & orchestra op. 42, Sinfonia Sacra for organ & orchestra op. 81 - Ch. Schmitt, Bamberger Symphoniker, S. Solyom - 2009, FLAC (image+.cue) lossless


 

[Цитировать]

Charles-Marie Widor - Symphony op. 42, Sinfonia Sacra op. 81 - Ch. Schmitt, Bamberger Symphoniker, S. Solyom
Жанр: Orchestral Music
Страна-производитель диска: Germany
Год издания диска: 2009
Издатель (лейбл): CPO
Номер по каталогу: 777443
Дата записи: 2008
Аудиокодек: FLAC
Тип рипа: image+.cue
Битрейт аудио: lossless
Продолжительность: 59:28
Источник: скачано с avaxhome, релизер luckburz (thanks!)
Важная информация: рип не мой, все благодарности оригинальному аплоудеру / Important Note: not my rip, all credits to the original uploader
Наличие сканов в содержимом раздачи: да
Треклист:
Symphony for Organ & Orchestra op. 42
[01] I. Allegro maestoso
[02] II. Andante
[03] III. Final. Allegro
Sinfonia Sacra for Organ & Orchestra op. 81
[04] I. Adagio
[05] II. Adagio
[06] III: Andante con moto
[07] IV. Allegro moderato
[08] V. Tempo I ma un poco agitato - Andante - Allegro moderato
Исполнители:
Christian Schmitt, organ
Bamberger Symphoniker, Stefan Solyom

Лог создания рипа

Exact Audio Copy V1.0 beta 3 from 29. August 2011
EAC extraction logfile from 10. September 2014, 20:37
Schmitt / Bamberger SO / Solyom / Widor: Organ Symphonies Opp. 42 & 81
Used drive : PIONEER BD-RW BDR-206 Adapter: 0 ID: 2
Read mode : SecureUtilize accurate stream : YesDefeat audio cache : YesMake use of C2 pointers : No
Read offset correction : 667Overread into Lead-In and Lead-Out : NoFill up missing offset samples with silence : YesDelete leading and trailing silent blocks : NoNull samples used in CRC calculations : YesUsed interface : Native Win32 interface for Win NT & 2000
Used output format : User Defined EncoderSelected bitrate : 1024 kBit/sQuality : HighAdd ID3 tag : YesCommand line compressor : C:\Program Files\FLAC\flac.exeAdditional command line options : -5 -T "Artist=%artist%" -T "Title=%title%" -T "Album=%albumtitle%" -T "Date=%year%" -T "Tracknumber=%tracknr%" -T "Genre=%genre%" %source% -o %dest%
TOC of the extracted CD
Track | Start | Length | Start sector | End sector --------------------------------------------------------- 1 | 0:00.00 | 8:56.45 | 0 | 40244 2 | 8:56.45 | 8:48.60 | 40245 | 79904 3 | 17:45.30 | 6:07.58 | 79905 | 107487 4 | 23:53.13 | 7:15.40 | 107488 | 140152 5 | 31:08.53 | 5:58.27 | 140153 | 167029 6 | 37:07.05 | 4:00.35 | 167030 | 185064 7 | 41:07.40 | 1:28.63 | 185065 | 191727 8 | 42:36.28 | 10:10.03 | 191728 | 237480
Range status and errors
Selected range
Filename F:\=== VINYL RIPS ===\=== EAC===\X FRESH RIP\Widor- Bamberger SO, Solyom - Organ Symphonies Opp. 42 & 81.wav
Peak level 99.2 % Extraction speed 7.2 X Range quality 100.0 % Copy CRC 25D43FE6 Copy OK
No errors occurred
AccurateRip summary
Track 1 accurately ripped (confidence 11) [1CB2BA63] (AR v2)Track 2 accurately ripped (confidence 11) [8336C47E] (AR v2)Track 3 accurately ripped (confidence 11) [4DA39071] (AR v2)Track 4 accurately ripped (confidence 11) [777C6EFC] (AR v2)Track 5 accurately ripped (confidence 11) [0C0E2AF7] (AR v2)Track 6 accurately ripped (confidence 11) [0F0D9761] (AR v2)Track 7 accurately ripped (confidence 11) [452CDBDD] (AR v2)Track 8 accurately ripped (confidence 11) [E367EF8D] (AR v2)
All tracks accurately ripped
End of status report
---- CUETools DB Plugin V2.1.3
[CTDB TOCID: EbfRiVnuxypFH_xhED6axJnNG_0-] found, Submit result: EbfRiVnuxypFH_xhED6axJnNG_0- has been confirmed[5345b6f9] (2/2) Accurately ripped
==== Log checksum 665E7FABC5A9AD4B14CF1FD6B40A66ACB641A038B400CE774DD7A99D0EB82CBB ====



Показать сообщения:    

Текущее время: 08-Дек 08:59

Часовой пояс: UTC + 3


Вы не можете начинать темы
Вы не можете отвечать на сообщения
Вы не можете редактировать свои сообщения
Вы не можете удалять свои сообщения
Вы не можете голосовать в опросах
Вы не можете прикреплять файлы к сообщениям
Вы не можете скачивать файлы