(Classical, Orchestra) Чайковский - Симфония No.1, Увертюра "Гамлет" (Adrian Leaper) - 1992, FLAC (image+.cue) lossless


 

[Цитировать]

Чайковский - Симфония No.1, Увертюра "Гамлет" (Adrian Leaper)
Жанр: Classical, Orchestra
Страна-производитель диска: Germany
Год издания диска: 1992
Издатель (лейбл): Naxos
Дата записи: 1991
Аудиокодек: FLAC
Тип рипа: image+.cue
Битрейт аудио: lossless
Продолжительность: 61
Источник: собственный рип
Наличие сканов в содержимом раздачи: да
Треклист:
01. Allegro tranquillo 11:47
02. Adagio cantabile ma non tanto 10:14
03. Scherzo: Allegro scherzando giocoso 08:15
04. Finale: Andante lugubre 12:55
05. Hamlet, Op.67 (Fantasy Overture) 17:52
Исполнители:
Polish National Radio Symphony Orchestra - Adrian Leaper
Recorded At The Concert Hall of the Polish Radio in Katowice, from September 7th to 12th, 1991.

Лог создания рипа

Exact Audio Copy V1.0 beta 4 from 7. December 2014
EAC extraction logfile from 7. May 2015, 13:18
Tchaikovsky; Polish National Radio Symphony Orchestra, Adrian Leaper / Symphony no. 1 / Hamlet Overture
Used drive : ATAPI iHAS124 A Adapter: 1 ID: 0
Read mode : SecureUtilize accurate stream : YesDefeat audio cache : YesMake use of C2 pointers : No
Read offset correction : 6Overread into Lead-In and Lead-Out : NoFill up missing offset samples with silence : YesDelete leading and trailing silent blocks : NoNull samples used in CRC calculations : YesUsed interface : Native Win32 interface for Win NT & 2000
Used output format : Internal WAV RoutinesSample format : 44.100 Hz; 16 Bit; Stereo
TOC of the extracted CD
Track | Start | Length | Start sector | End sector --------------------------------------------------------- 1 | 0:00.00 | 11:47.25 | 0 | 53049 2 | 11:47.25 | 10:14.55 | 53050 | 99154 3 | 22:02.05 | 8:15.20 | 99155 | 136299 4 | 30:17.25 | 12:55.00 | 136300 | 194424 5 | 43:12.25 | 17:52.10 | 194425 | 274834
Range status and errors
Selected range
Filename C:\Tchaikovsky; Polish National Radio Symphony Orchestra, Adrian Leaper - Symphony no. 1 , Hamlet Overture\Tchaikovsky; Polish National Radio Symphony Orchestra, Adrian Leaper - Symphony no. 1 , Hamlet Overture.wav
Peak level 98.5 % Extraction speed 6.0 X Range quality 100.0 % Test CRC 31363B6B Copy CRC 31363B6B Copy OK
No errors occurred
AccurateRip summary
Track 1 accurately ripped (confidence 5) [5D4D2F8F] (AR v2)Track 2 accurately ripped (confidence 5) [687018B3] (AR v2)Track 3 accurately ripped (confidence 5) [9209CD58] (AR v2)Track 4 accurately ripped (confidence 5) [6A849E9D] (AR v2)Track 5 accurately ripped (confidence 5) [F2FCD425] (AR v2)
All tracks accurately ripped
End of status report
---- CUETools DB Plugin V2.1.4
[CTDB TOCID: 4kNXhwJzcPqW33bASrrCYZk5XF4-] foundSubmit result: 4kNXhwJzcPqW33bASrrCYZk5XF4- has been confirmedTrack | CTDB Status 1 | (14/15) Accurately ripped 2 | (14/15) Accurately ripped 3 | (14/15) Accurately ripped 4 | (14/15) Accurately ripped 5 | (14/15) Accurately ripped

Доп. информация

Уже будучи маститым композитором, признанным мастером оперного и симфонического жанра, Чайковский писал: "...Симфония... самая лирическая из всех музыкальных форм... Не должна ли она выражать все то, для чего нет слов, но что просится из души и что хочет быть высказано." И можно только поражаться, как он, только что закончивший Петербургскую консерваторию, весной 1866 года принялся за сочинение своей Первой симфонии, одной из самых элегических лирических исповедей Чайковского. Её композитор назвал "Зимние грезы", 1 часть - "Грезы зимней дорогой", 2 часть - "Угрюмый край, туманный край". Музыку этой симфонии Чайковского можно сравнить с элегическими полотнами Левитана. Это не только первая русская классическая симфония, но и первое лирико-психологическое произведение в жанре симфонии в русской музыке.



Показать сообщения:    

Текущее время: 08-Дек 11:00

Часовой пояс: UTC + 3


Вы не можете начинать темы
Вы не можете отвечать на сообщения
Вы не можете редактировать свои сообщения
Вы не можете удалять свои сообщения
Вы не можете голосовать в опросах
Вы не можете прикреплять файлы к сообщениям
Вы не можете скачивать файлы