(Classical) Elgar - Enigma Variations, In the South, Coronation March - Bournemouth Symphony Orchestra, George Hurst - 1997, FLAC (image+.cue) lossless


 

[Цитировать]

Elgar - Enigma Variations, In the South, Coronation March
Жанр: Classical
Страна-производитель диска: E.C.
Год издания диска: 1997
Издатель (лейбл): NAXOS
Номер по каталогу: 8.553564
Дата записи: 1995
Аудиокодек: FLAC
Тип рипа: image+.cue
Битрейт аудио: lossless
Продолжительность: 00:58:47
Источник: собственный рип
Наличие сканов в содержимом раздачи: да
Треклист:
Variations on an Original Theme, Op. 36, "Enigma"
01. Enigma (1:27)
02. Var. 1 (C.A.E.) (1:43)
03. Var. 2 (H.D.S-P) (0:45)
04. Var. 3 (R.B.T.) (1:21)
05. Var. 4 (W.M.B.) (0:32)
06. Var. 5 (R.P.A.) (1:57)
07. Var. 6 (Ysobel) (1:15)
08. Var. 7 (Troyte) (1:00)
09. Var. 8 (W.N.) (1:53)
10. Var. 9 (Nimrod) (3:28)
11. Var. 10 (Dorabella) - Intermezzo (2:36)
12. Var. 11 (G.R.S.) (1:02)
13. Var. 12 (B.G.N.) (2:37)
14. Var. 13 (***) - Romanza (2:31)
15. Var. 14 (E.D.U.) - Finale (4:38)
16. In The South, Op. 50 (21:06)
17. Coronation March, Op. 65 (8:54)

Исполнители:
Bournemouth Symphony Orchestra
George Hurst (Conductor)

Лог создания рипа

Exact Audio Copy V1.0 beta 3 from 29. August 2011
Отчёт EAC об извлечении, выполненном 6. мая 2015, 2:18
Bournemouth Symphony Orchestra; George Hurst (conductor) / Elgar: Enigma Variations, In the South, Coronation March
Дисковод: ASUS DRW-1814BL Adapter: 1 ID: 1
Режим чтения : ДостоверностьИспользование точного потока : ДаОтключение кэша аудио : ДаИспользование указателей C2 : Нет
Коррекция смещения при чтении : 6Способность читать области Lead-in и Lead-out : НетЗаполнение пропущенных сэмплов тишиной : ДаУдаление блоков с тишиной в начале и конце : НетПри вычислениях CRC использовались нулевые сэмплы : ДаИнтерфейс : Встроенный Win32-интерфейс для Win NT/2000
Выходной формат : Пользовательский кодировщикВыбранный битрейт : 128 kBit/sКачество : ВысокийДобавление ID3-тега : НетУтилита сжатия : C:\Program Files\Exact Audio Copy\Flac\flac.exeДополнительные параметры : -V -8 -T "Date=%year%" -T "Genre=%genre%" %source%
TOC извлечённого CD
Трек | Старт | Длительность | Начальный сектор | Конечный сектор --------------------------------------------------------------------- 1 | 0:00.00 | 1:27.22 | 0 | 6546 2 | 1:27.22 | 1:42.65 | 6547 | 14261 3 | 3:10.12 | 0:44.43 | 14262 | 17604 4 | 3:54.55 | 1:21.37 | 17605 | 23716 5 | 5:16.17 | 0:32.08 | 23717 | 26124 6 | 5:48.25 | 1:56.45 | 26125 | 34869 7 | 7:44.70 | 1:15.15 | 34870 | 40509 8 | 9:00.10 | 0:59.67 | 40510 | 45001 9 | 10:00.02 | 1:52.70 | 45002 | 53471 10 | 11:52.72 | 3:28.25 | 53472 | 69096 11 | 15:21.22 | 2:35.53 | 69097 | 80774 12 | 17:57.00 | 1:02.07 | 80775 | 85431 13 | 18:59.07 | 2:37.33 | 85432 | 97239 14 | 21:36.40 | 2:30.42 | 97240 | 108531 15 | 24:07.07 | 4:38.33 | 108532 | 129414 16 | 28:45.40 | 21:05.50 | 129415 | 224339 17 | 49:51.15 | 8:53.70 | 224340 | 264384
Характеристики диапазона извлечения и сообщения об ошибках
Выбранный диапазон
Имя файла C:\Documents and Settings\biotox\Рабочий стол\Новая папка\Bournemouth Symphony Orchestra; George Hurst (conductor) - Elgar- Enigma Variations, In the South, Coronation March.wav
Пиковый уровень 100.0 % Скорость извлечения 7.2 X Качество диапазона 100.0 % CRC теста 4D943B0C CRC копии 4D943B0C Копирование... OK
Ошибок не произошло
AccurateRip: сводка
Трек 1 : извлечено точно (доверие 15) [D26D1C3D] (AR v2)Трек 2 : извлечено точно (доверие 15) [7F0CF36E] (AR v2)Трек 3 : извлечено точно (доверие 15) [35C894C9] (AR v2)Трек 4 : извлечено точно (доверие 15) [5E4B44BB] (AR v2)Трек 5 : извлечено точно (доверие 15) [06378C80] (AR v2)Трек 6 : извлечено точно (доверие 15) [C964ECE3] (AR v2)Трек 7 : извлечено точно (доверие 15) [3D370CC9] (AR v2)Трек 8 : извлечено точно (доверие 15) [195F958E] (AR v2)Трек 9 : извлечено точно (доверие 15) [4197669D] (AR v2)Трек 10 : извлечено точно (доверие 15) [409A1FF9] (AR v2)Трек 11 : извлечено точно (доверие 15) [AA02012C] (AR v2)Трек 12 : извлечено точно (доверие 15) [C19F3B45] (AR v2)Трек 13 : извлечено точно (доверие 15) [F951E13F] (AR v2)Трек 14 : извлечено точно (доверие 15) [37E2EBD0] (AR v2)Трек 15 : извлечено точно (доверие 15) [9C322EC0] (AR v2)Трек 16 : извлечено точно (доверие 14) [D894B1C1] (AR v2)Трек 17 : извлечено точно (доверие 14) [ECEFBDE1] (AR v2)
Все треки извлечены точно
Конец отчёта
==== Контрольная сумма отчёта 8D079766122ECCB58AE7163DB99DA733F1CC9872EF64783133BE2A544D38713F ====

Замер динамического диапазона

foobar2000 1.2.9 / Замер динамического диапазона (DR) 1.1.1
Дата отчёта: 2015-05-06 02:35:01
--------------------------------------------------------------------------------
Анализ: Bournemouth Symphony Orchestra; George Hurst (conductor) / Elgar: Enigma Variations, In the South, Coronation March
--------------------------------------------------------------------------------
DR Пики RMS Продолжительность трека
--------------------------------------------------------------------------------
DR11 -15.94 дБ -32.83 дБ 1:27 01-Enigma (Variations on an Original Theme, Op.36)
DR14 -2.81 дБ -24.05 дБ 1:43 02-Var. 1 (C.A.E.)
DR11 -10.96 дБ -27.97 дБ 0:45 03-Var. 2 (H.D.S-P)
DR12 -10.99 дБ -29.11 дБ 1:21 04-Var. 3 (R.B.T.)
DR12 -3.00 дБ -19.26 дБ 0:32 05-Var. 4 (W.M.B.)
DR12 -12.17 дБ -29.76 дБ 1:57 06-Var. 5 (R.P.A.)
DR13 -13.73 дБ -33.50 дБ 1:15 07-Var. 6 (Ysobel)
DR12 0.00 дБ -17.27 дБ 1:00 08-Var. 7 (Troyte)
DR13 -13.96 дБ -33.30 дБ 1:53 09-Var. 8 (W.N.)
DR14 -5.90 дБ -26.22 дБ 3:28 10-Var. 9 (Nimrod)
DR13 -21.35 дБ -40.64 дБ 2:36 11-Var. 10 (Dorabella) - Intermezzo
DR13 -6.57 дБ -24.56 дБ 1:02 12-Var. 11 (G.R.S.)
DR11 -13.96 дБ -33.97 дБ 2:37 13-Var. 12 (B.G.N.)
DR15 -10.28 дБ -33.90 дБ 2:31 14-Var. 13 (***) - Romanza
DR14 -2.00 дБ -20.35 дБ 4:38 15-Var. 14 (E.D.U.) - Finale
DR16 -3.00 дБ -24.96 дБ 21:06 16-In The South, Op. 50
DR14 -2.00 дБ -21.03 дБ 8:54 17-Coronation March, Op. 65
--------------------------------------------------------------------------------
Количество треков: 17
Реальные значения DR: DR13
Частота: 44100 Гц
Каналов: 2
Разрядность: 16
Битрейт: 513 кбит/с
Кодек: FLAC
================================================================================

Доп. информация

Edward Elgar (1857 - 1934)
Enigma Variations / In the South / Coronation March
We tend to forget that the most famous English composer, Edward Elgar, was 42 before the nation realised that at long last they had a symphonist of international stature. The work that was to change his fortunes was a curious score that became known as the 'Enigma' Variations.
He was born in Worcester in the west-midlands of England in 1857, the fourth of seven children to William Henry Elgar, a piano tuner and music shop owner. He was destined to be a musician from an early age, and by the time he was ten he had composed music for a family play, of such quality that he was to use it in later life. His parents were not wealthy and he had a basic education, having to start work from the age of 15 in a solicitors office. He was, however, a proficient pianist, organist and violinist, and at 16 decided to chance his life as a freelance musician. He never again had a permanent post, and for the next ten years worked as a professional, but largely in the world of amateur music, conducting local choirs and orchestras. He continued to compose and had several of his works played by local orchestras. By now he was also teaching and in 1886 he had sufficient income to marry a wife from an affluent background.
They moved to London in 1890, but he was not accepted as a musician or composer, and retreated to Malvern, near to his place of birth, the following year. But if London had rejected him, he did begin to make headway in the provinces, and in 1896 a major choral score, 'The Light of Life' was given its first performance in Worcester at the Three Choirs Festival, one of England's most prestigious annual festivals. Then in 1899 came that work that changed his life, the 'Enigma' Variations. It was in the next twenty years that his major output was composed, for while he was 42 before recognition arrived, he also to write no large-scale work in the last 15 years of his life. Maybe the death of his wife in 1920 removed much of the purpose of life and also the support that his very existence needed.
He died in 1934 having composed two symphonies, concertos for both violin and cello, a number of symphonic poems, choral works both sacred and secular, chamber music and a limited amount of instrumental music.
The 'Enigma' Variations started out life as something of a humorous exercise, picturing his friends in music. At first some of them were only known by their initials in the score, but the owners names were soon discovered. The theme, however, has remained a secret, and though many believed they have unearthed its origin, it is still an 'Enigma'. Certainly much of its immediate attraction comes in the virtuosity of the score, the short sections contrasting the mercurial with slow pictures of great beauty. Nimrod, one of the long slow sections, has become a work in its own right, recently entering the world of 'pop' classics. Equally it has a more cosmopolitan atmosphere than British music of that time, yet the grandiose finale is a foreigner's view of England amid the pomp of the past empire.
After the success of his oratorio, 'The Apostles' in 1903, he took a holiday in Italy, staying in Alassio. It proved to be the stimulus for the overture, 'In the South'. It is a virile score, rich with thematic material, and full of sun. Yet there is still something of the Malvern Hills in the background.
Coronation March comes from 1911, and is one of a number of marches written for specific occasions. They did, however, tend to become so popular that they deflected from Elgar's major works, and at times he wished to reject them.
Made in September 1995 at the Wessex Hall in the Poole Arts Centre.
The Enigma Variations is one of the most frequently recorded works by a British composer. The difference here is the conductor - George Hurst - who directed the Naxos recording of Elgar's First Symphony rated number 1 by the world's leading Elgar authority Jerold Northrop Moore.



Показать сообщения:    

Текущее время: 04-Дек 11:15

Часовой пояс: UTC + 3


Вы не можете начинать темы
Вы не можете отвечать на сообщения
Вы не можете редактировать свои сообщения
Вы не можете удалять свои сообщения
Вы не можете голосовать в опросах
Вы не можете прикреплять файлы к сообщениям
Вы не можете скачивать файлы